<?xml version="1.0" standalone="no"?>
<!DOCTYPE svg PUBLIC "-//W3C//DTD SVG 1.1//EN" "http://www.w3.org/Graphics/SVG/1.1/DTD/svg11.dtd" >
<svg xmlns="http://www.w3.org/2000/svg">
<metadata>Generated by IcoMoon</metadata>
<defs>
<font id="dticon" horiz-adv-x="1024">
<font-face units-per-em="1024" ascent="960" descent="-64" />
<missing-glyph horiz-adv-x="1024" />
<glyph unicode="&#x20;" horiz-adv-x="512" d="" />
<glyph unicode="&#xe900;" glyph-name="add-circle-outline" d="M512 47c-221.2 0-401 179.8-401 401s179.8 401 401 401c221.2 0 401-179.8 401-401s-179.8-401-401-401zM512 815c-202.4 0-367-164.6-367-367s164.6-367 367-367c202.4 0 367 164.6 367 367s-164.6 367-367 367zM512 271c-9.4 0-17 7.6-17 17v320c0 9.4 7.6 17 17 17s17-7.6 17-17v-320c0-9.4-7.6-17-17-17zM672 431h-320c-9.4 0-17 7.6-17 17s7.6 17 17 17h320c9.4 0 17-7.6 17-17s-7.6-17-17-17z" />
<glyph unicode="&#xe901;" glyph-name="add-outline" d="M512 143c-9.4 0-17 7.6-17 17v576c0 9.4 7.6 17 17 17s17-7.6 17-17v-576c0-9.4-7.6-17-17-17zM800 431h-576c-9.4 0-17 7.6-17 17s7.6 17 17 17h576c9.4 0 17-7.6 17-17s-7.6-17-17-17z" />
<glyph unicode="&#xe902;" glyph-name="airplane-outline" d="M373.2 47h-53.2c-5.8 0-11.2 3-14.2 7.8s-3.6 11-1.2 16.2l138.4 305.2-223.4 5-75.6-91.2c-11.4-14.4-18.6-19-40-19h-35.8c-9.4 0-14.6 4.4-17.4 8-5.8 8-3.4 16.6-2.6 19.8l39.8 142.2c0.2 0.6 0.4 1.2 0.6 1.6 1.4 3.6 1.4 7.8 0 11.4-0.2 0.6-0.4 1-0.6 1.6l-39.6 142.8c-2.2 7.4-1.2 13.8 2.6 19 3.6 4.8 9.2 7.4 15.2 7.4h37.8c16 0 31.4-7 40.4-18.4l73.8-89.8 224.8 3.4-138.4 305c-2.4 5.2-2 11.4 1.2 16.2s8.6 7.8 14.2 7.8h53.8c0.4 0 0.6 0 1 0 5-0.2 10-1.6 14.4-4s8.2-5.6 11.2-9.4l255.2-310.2 123 3.2c7.4 0.4 30.4 0.6 36.8 0.6 101.2 0 161.6-30.2 161.6-81s-60.4-81.2-161.6-81.2c-6.4 0-29.2 0.2-36.8 0.6l-123 3.2-255.8-310.2c-3-4-6.8-7-11.2-9.4s-9.4-3.8-14.4-4c-0.2-0.2-0.6-0.2-1-0.2zM346.4 81h26.4c0.2 0 0.2 0.2 0.4 0.2 0.2 0.2 0.2 0.4 0.4 0.6l259.4 314.6c6 8 16.6 8.4 18.8 8.4 0.2 0 0.4 0 0.4 0l127.8-3.4c0.2 0 0.4 0 0.6 0 5.8-0.4 27.4-0.6 35-0.6 76.2 0 127.6 19 127.6 47.2s-51.2 47-127.6 47c-7.6 0-29.4-0.2-35-0.6-0.2 0-0.4 0-0.6 0l-129.6-3.4c-3.6-0.2-7.4 0.6-10.6 2.4-2.8 1.6-5.2 3.6-7 6.2l-258.8 314.4c-0.2 0.2-0.2 0.4-0.4 0.6 0 0.2-0.2 0.2-0.4 0.2h-26.8l135-298c1.6-3.4 2.2-7 2-10.8s-1.6-7.4-3.6-10.4c-2-3.2-5-5.6-8.4-7.4-3-1.6-6.6-2.2-10-2.2l-242.8-3.6c-5.2-0.2-10.2 1-15 3.2-4.6 2.2-8.8 5.4-11.8 9.4l-73.8 89.8c-0.2 0.2-0.2 0.2-0.4 0.4-2.4 3-8.2 5.4-13.6 5.4h-18.2l34.8-125.4c4.2-11.2 4.2-23.2 0-34.4l-35.2-126h18.6c6 0 8 0.4 8.6 0.6 1 0.8 3.6 4 4.8 5.6l0.2 0.2 75.4 91.2c3.2 4 7.2 7.2 11.8 9.4s9.8 3.2 15 3.2l241.4-5.4c3.6 0 7.2-1 10.4-2.8s6-4.4 7.8-7.4c2-3 3.2-6.6 3.6-10.2s-0.2-7.4-1.6-10.6c0-0.2-0.2-0.2-0.2-0.4l-134.8-297.2zM660.6 376.8v0 0zM450.6 502.8v0 0zM779.4 511.4v0 0zM661 518.4v0 0zM648.6 525v0 0zM648.6 525v0 0z" />
<glyph unicode="&#xe903;" glyph-name="alarm-outline" d="M512.2 79c-66.8 0-131.6 19.6-187.2 56.8s-98.6 89.4-124.2 151.2-32.2 129.2-19.2 194.8 45 125.2 92.2 172.6c47.2 47.2 107 79.2 172.6 92.2s133 6.4 194.8-19.2c61.8-25.6 114-68.6 151.2-124.2s56.8-120.4 56.8-187.2c0-90-35-174.6-98.8-238.2-63.6-63.8-148.2-98.8-238.2-98.8zM512.4 719c-19.8 0-39.6-2-59.2-5.8-59-11.8-112.6-40.4-155.2-83s-71.2-96.2-83-155.2-5.8-119.6 17.2-175c23-55.6 61.6-102.6 111.6-136s108.2-51 168.4-51c81 0 157 31.6 214.2 88.8s88.8 133.4 88.8 214.2c0 60.2-17.6 118.4-51 168.4s-80.4 88.6-136 111.6c-37.2 15.2-76.4 23-115.8 23zM158.2 623h-3.4c-3.6 0.4-7.2 1.4-10.4 3.2s-5.8 4-8.2 7c-12.4 15.8-25.4 32.2-25.4 65-0.2 63 46.6 115.2 106.2 118.8h0.6l5.8 0.2h0.2c26-0.2 51.4-9.6 71.2-26.6v0c2.8-2.4 5.2-5.4 6.8-9 1.6-3.4 2.6-7.2 2.6-11 0.2-3.8-0.4-7.4-1.8-11s-3.4-6.8-6.2-9.4l-0.2-0.2-120.8-118.8c-2-2.2-4.4-4.2-7-5.6-2.6-1.6-6.2-2.6-10-2.6v0zM219.2 782.8c-41.6-2.6-74.2-39.8-74-84.8 0-17.4 4.6-26.4 12.6-37l109.8 107.8c-12.6 9-27.8 13.8-43.4 14h-5zM868.2 623h-2.8c-3.6 0-7.2 1-10.4 2.6-2.6 1.4-5 3.2-7 5.6l-120.8 118.8c-2.6 2.8-4.8 6-6.2 9.4-1.4 3.6-2 7.4-1.8 11.2 0.2 3.6 1 7.4 2.6 10.8s4 6.4 6.8 9v0c19.8 17 45.2 26.4 71.2 26.6h0.2l6.4-0.2c59.8-3.6 106.4-55.8 106.2-118.8 0-32.8-12.8-49.2-25.4-65-2.2-2.8-5-5.2-8.2-6.8-3.2-1.8-6.8-2.8-10.4-3l-0.4-0.2zM756.4 769l109.8-107.8c8 10.6 12.6 19.6 12.6 36.8 0.2 45-32.4 82.2-74 84.8l-5 0.2c-15.6-0.2-30.8-5-43.4-14zM512.2 399h-160c-9.4 0-17 7.6-17 17s7.6 17 17 17h143v207c0 9.4 7.6 17 17 17s17-7.6 17-17v-224c0-9.4-7.6-17-17-17zM832.2 79c-4.4 0-8.8 1.6-12 5l-80 80c-6.6 6.6-6.6 17.4 0 24s17.4 6.6 24 0l80-80c6.6-6.6 6.6-17.4 0-24-3.4-3.4-7.8-5-12-5zM192.2 79c-4.4 0-8.8 1.6-12 5-6.6 6.6-6.6 17.4 0 24l80 80c6.6 6.6 17.4 6.6 24 0s6.6-17.4 0-24l-80-80c-3.4-3.4-7.8-5-12-5z" />
<glyph unicode="&#xe904;" glyph-name="albums-outline" d="M838.2 79h-652.4c-41.2 0-74.8 33.6-74.8 74.8v396.4c0 41.2 33.6 74.8 74.8 74.8h652.6c41.2 0 74.8-33.6 74.8-74.8v-396.6c-0.2-41-33.8-74.6-75-74.6zM185.8 591c-22.4 0-40.8-18.2-40.8-40.8v-396.6c0-22.4 18.2-40.8 40.8-40.8h652.6c22.4 0 40.8 18.2 40.8 40.8v396.6c0 22.4-18.2 40.8-40.8 40.8h-652.6zM736 783h-448c-9.4 0-17 7.6-17 17s7.6 17 17 17h448c9.4 0 17-7.6 17-17s-7.6-17-17-17zM800 687h-576c-9.4 0-17 7.6-17 17s7.6 17 17 17h576c9.4 0 17-7.6 17-17s-7.6-17-17-17z" />
<glyph unicode="&#xe905;" glyph-name="alert-circle-outline" d="M512 47c-221.2 0-401 179.8-401 401s179.8 401 401 401 401-179.8 401-401-179.8-401-401-401zM512 815c-202.4 0-367-164.6-367-367s164.6-367 367-367 367 164.6 367 367-164.6 367-367 367zM512 367c-9 0-16.6 7.2-17 16.2l-11.4 244c-0.2 3.8 0.4 7.6 1.8 11.2s3.4 6.8 6 9.6c2.6 2.8 5.8 5 9.4 6.6s7.2 2.4 11.2 2.4c3.8 0 7.6-0.8 11.2-2.2s6.8-3.6 9.4-6.4c2.6-2.8 4.8-6 6.2-9.6s2-7.4 1.8-11.4l-11.4-244c-0.6-9.2-8.2-16.4-17.2-16.4zM512 224.2c-8 0-15.6 2.4-22.2 6.8s-11.8 10.6-14.8 18-3.8 15.4-2.2 23.2c1.6 7.8 5.4 14.8 11 20.4s12.8 9.4 20.4 11c7.8 1.6 15.8 0.8 23.2-2.2s13.6-8.2 18-14.8 6.8-14.4 6.8-22.2c0-10.6-4.2-20.8-11.8-28.2s-17.8-12-28.4-12z" />
<glyph unicode="&#xe906;" glyph-name="alert-outline" d="M512 303c-8.816 0-17.102 3.432-23.334 9.664-6.146 6.146-9.568 14.29-9.664 22.964l-15.982 431.518c-0.75 12.366 3.714 24.386 12.586 33.876 9.496 10.154 22.76 15.978 36.394 15.978s26.898-5.824 36.392-15.978c8.876-9.49 13.338-21.51 12.588-33.876l-15.982-431.518c-0.096-8.676-3.518-16.818-9.662-22.964-6.238-6.232-14.524-9.664-23.336-9.664zM512 783c-4.194 0-8.514-1.944-11.56-5.2-1.416-1.512-3.748-4.65-3.478-8.662 0.012-0.17 0.020-0.34 0.026-0.51l15.012-405.312 15.012 405.312c0.006 0.17 0.016 0.34 0.028 0.51 0.268 4.010-2.064 7.148-3.48 8.662-3.046 3.256-7.366 5.2-11.56 5.2zM512 79c-27.018 0-49 21.98-49 49s21.982 49 49 49c27.020 0 49-21.98 49-49s-21.98-49-49-49zM512 143c-8.272 0-15-6.728-15-15s6.728-15 15-15c8.272 0 15 6.728 15 15s-6.728 15-15 15z" />
<glyph unicode="&#xe907;" glyph-name="american-football-outline" d="M327-20.2c-83 0-154.2 26.4-205.4 77.6-69.8 70-93.6 176.4-67.2 300 25.8 121 97 244.6 200.2 348 103.4 103.2 227 174.4 348 200.2 123.6 26.4 230.2 2.6 299.8-67.2 69.8-69.8 93.6-176.2 67.2-299.8-25.8-121-97-244.6-200.4-347.8-103.4-103.4-227-174.6-347.8-200.4-32.8-7-64.4-10.6-94.4-10.6zM697 882c-27.6 0-56.8-3.2-87.2-9.8-114.8-24.2-232.2-92.2-331-191s-166.8-216.2-191.2-330.8c-23.8-112-3.2-207.4 58-268.8 61.4-61.4 156.8-82 268.8-58 114.6 24.4 232.2 92.4 331 191.2s166.6 216.4 191.2 331c23.8 112 3.4 207.4-58 268.8-44.8 44.4-107.6 67.4-181.6 67.4zM356 275c-4.4 0-8.8 1.6-12 5-6.6 6.6-6.6 17.4 0 24l312 312.2c6.6 6.6 17.4 6.6 24 0s6.6-17.4 0-24l-312-312.4c-3.4-3.2-7.8-4.8-12-4.8zM556.6 386.4c-4.4 0-8.8 1.6-12 5l-89.2 89.2c-6.6 6.6-6.6 17.4 0 24s17.4 6.6 24 0l89.2-89.2c6.6-6.6 6.6-17.4 0-24-3.2-3.4-7.6-5-12-5zM645.8 475.6c-4.4 0-8.8 1.6-12 5l-89.2 89.2c-6.6 6.6-6.6 17.4 0 24s17.4 6.6 24 0l89.2-89.2c6.6-6.6 6.6-17.4 0-24-3.4-3.4-7.6-5-12-5zM913.4 520.2c-4.4 0-8.8 1.6-12 5l-312.2 312.2c-6.6 6.6-6.6 17.4 0 24s17.4 6.6 24 0l312.2-312.2c6.6-6.6 6.6-17.4 0-24-3.4-3.4-7.6-5-12-5zM422.8 29.6c-4.4 0-8.8 1.6-12 5l-312.2 312.2c-6.6 6.6-6.6 17.4 0 24s17.4 6.6 24 0l312.2-312.2c6.6-6.6 6.6-17.4 0-24-3.2-3.2-7.6-5-12-5zM467.4 297.2c-4.4 0-8.8 1.6-12 5l-89.2 89.2c-6.6 6.6-6.6 17.4 0 24s17.4 6.6 24 0l89.2-89.2c6.6-6.6 6.6-17.4 0-24-3.2-3.4-7.6-5-12-5z" />
<glyph unicode="&#xe908;" glyph-name="analytics-outline" d="M688 383c-4.352 0-8.702 1.66-12.022 4.978-6.638 6.638-6.638 17.404 0 24.042l176 176c6.64 6.638 17.402 6.638 24.042 0 6.638-6.638 6.638-17.402 0-24.042l-176-176c-3.318-3.318-7.668-4.978-12.020-4.978zM592 383c-4.352 0-8.702 1.66-12.022 4.978l-128 128c-6.64 6.638-6.64 17.402 0 24.042 6.638 6.638 17.402 6.638 24.042 0l128-128c6.638-6.638 6.638-17.404 0-24.042-3.318-3.318-7.668-4.978-12.020-4.978zM160 303c-4.35 0-8.702 1.66-12.020 4.978-6.64 6.638-6.64 17.404 0 24.042l208 208c6.638 6.638 17.402 6.638 24.042 0s6.64-17.402 0-24.042l-208-208c-3.32-3.318-7.672-4.978-12.022-4.978zM912 559c-35.842 0-65 29.16-65 65s29.158 65 65 65 65-29.16 65-65-29.158-65-65-65zM912 655c-17.094 0-31-13.906-31-31s13.906-31 31-31 31 13.906 31 31-13.906 31-31 31zM640 287c-35.842 0-65 29.158-65 65s29.158 65 65 65 65-29.158 65-65-29.158-65-65-65zM640 383c-17.094 0-31-13.906-31-31s13.906-31 31-31 31 13.906 31 31-13.906 31-31 31zM416 511c-35.84 0-65 29.16-65 65s29.16 65 65 65 65-29.16 65-65-29.16-65-65-65zM416 607c-17.094 0-31-13.906-31-31s13.906-31 31-31 31 13.906 31 31-13.906 31-31 31zM112 207c-35.84 0-65 29.158-65 65s29.16 65 65 65 65-29.158 65-65-29.16-65-65-65zM112 303c-17.094 0-31-13.906-31-31s13.906-31 31-31 31 13.906 31 31-13.906 31-31 31z" />
<glyph unicode="&#xe909;" glyph-name="aperture-outline" d="M512 47c-221.2 0-401 179.8-401 401s179.8 401 401 401 401-179.8 401-401-179.8-401-401-401zM512 815c-202.4 0-367-164.6-367-367s164.6-367 367-367 367 164.6 367 367-164.6 367-367 367zM720 351c-9.4 0-17 7.6-17 17v402.8c0 9.4 7.6 17 17 17s17-7.6 17-17v-402.8c0-9.4-7.6-17-17-17zM592 223c-4.4 0-8.8 1.6-12 5-6.6 6.6-6.6 17.4 0 24l294.2 294.2c6.6 6.6 17.4 6.6 24 0s6.6-17.4 0-24l-294.2-294.2c-3.2-3.4-7.6-5-12-5zM834.8 223h-402.8c-9.4 0-17 7.6-17 17s7.6 17 17 17h402.8c9.4 0 17-7.6 17-17s-7.6-17-17-17zM598.2 56.8c-4.4 0-8.8 1.6-12 5l-288 288c-6.6 6.6-6.6 17.4 0 24s17.4 6.6 24 0l288-288c6.6-6.6 6.6-17.4 0-24-3.2-3.4-7.6-5-12-5zM304 111c-9.4 0-17 7.6-17 17v400c0 9.4 7.6 17 17 17s17-7.6 17-17v-400c0-9.4-7.6-17-17-17zM137.8 344.8c-4.4 0-8.8 1.6-12 5-6.6 6.6-6.6 17.4 0 24l288 288c6.6 6.6 17.4 6.6 24 0s6.6-17.4 0-24l-288-288c-3.4-3.4-7.8-5-12-5zM576 639h-386.8c-9.4 0-17 7.6-17 17s7.6 17 17 17h386.8c9.4 0 17-7.6 17-17s-7.6-17-17-17zM720 511c-4.4 0-8.8 1.6-12 5l-294.2 294.2c-6.6 6.6-6.6 17.4 0 24s17.4 6.6 24 0l294.2-294.2c6.6-6.6 6.6-17.4 0-24-3.2-3.4-7.6-5-12-5z" />
<glyph unicode="&#xe90a;" glyph-name="apps-outline" d="M208 655c-53.4 0-97 43.6-97 97s43.6 97 97 97 97-43.6 97-97-43.6-97-97-97zM208 815c-34.8 0-63-28.2-63-63s28.2-63 63-63 63 28.2 63 63-28.2 63-63 63zM512 655c-53.4 0-97 43.6-97 97s43.6 97 97 97 97-43.6 97-97-43.6-97-97-97zM512 815c-34.8 0-63-28.2-63-63s28.2-63 63-63 63 28.2 63 63-28.2 63-63 63zM816 655c-53.4 0-97 43.6-97 97s43.6 97 97 97 97-43.6 97-97-43.6-97-97-97zM816 815c-34.8 0-63-28.2-63-63s28.2-63 63-63 63 28.2 63 63-28.2 63-63 63zM208 351c-53.4 0-97 43.6-97 97s43.6 97 97 97 97-43.6 97-97-43.6-97-97-97zM208 511c-34.8 0-63-28.2-63-63s28.2-63 63-63 63 28.2 63 63-28.2 63-63 63zM512 351c-53.4 0-97 43.6-97 97s43.6 97 97 97 97-43.6 97-97-43.6-97-97-97zM512 511c-34.8 0-63-28.2-63-63s28.2-63 63-63 63 28.2 63 63-28.2 63-63 63zM816 351c-53.4 0-97 43.6-97 97s43.6 97 97 97 97-43.6 97-97-43.6-97-97-97zM816 511c-34.8 0-63-28.2-63-63s28.2-63 63-63 63 28.2 63 63-28.2 63-63 63zM208 47c-53.4 0-97 43.6-97 97s43.6 97 97 97 97-43.6 97-97-43.6-97-97-97zM208 207c-34.8 0-63-28.2-63-63s28.2-63 63-63 63 28.2 63 63-28.2 63-63 63zM512 47c-53.4 0-97 43.6-97 97s43.6 97 97 97 97-43.6 97-97-43.6-97-97-97zM512 207c-34.8 0-63-28.2-63-63s28.2-63 63-63 63 28.2 63 63-28.2 63-63 63zM816 47c-53.4 0-97 43.6-97 97s43.6 97 97 97 97-43.6 97-97-43.6-97-97-97zM816 207c-34.8 0-63-28.2-63-63s28.2-63 63-63 63 28.2 63 63-28.2 63-63 63z" />
<glyph unicode="&#xe90b;" glyph-name="archive-outline" d="M240 47c-26 0-50.2 10.2-68.6 28.4-18.2 18.2-28.4 42.6-28.4 68.4v512.2c0 9.4 7.6 17 17 17s17-7.6 17-17v-512c0-16.8 6.6-32.6 18.6-44.4 11.8-11.8 27.8-18.4 44.6-18.6h544c16.8 0 32.6 6.6 44.4 18.6 11.8 11.8 18.4 27.8 18.6 44.6v511.8c0 9.4 7.6 17 17 17s17-7.6 17-17v-512c0-26-10.2-50.2-28.4-68.6-18.2-18.2-42.6-28.4-68.4-28.4h-544.4zM872 655h-720c-40.2 0-73 32.8-73 73v48c0 40.2 32.8 73 73 73h720c40.2 0 73-32.8 73-73v-48c0-40.2-32.8-73-73-73zM152 815c-21.6 0-39-17.4-39-39v-48c0-21.6 17.4-39 39-39h720c21.6 0 39 17.4 39 39v48c0 21.6-17.4 39-39 39h-720zM512 207c-4.4 0-8.8 1.6-12 5l-128 128c-6.6 6.6-6.6 17.4 0 24s17.4 6.6 24 0l116-116 116 116c6.6 6.6 17.4 6.6 24 0s6.6-17.4 0-24l-128-128c-3.2-3.4-7.6-5-12-5zM512 251.2c-9.4 0-17 7.6-17 17v243.8c0 9.4 7.6 17 17 17s17-7.6 17-17v-243.8c0-9.4-7.6-17-17-17z" />
<glyph unicode="&#xe90c;" glyph-name="arrow-back-circle-outline" d="M498.8 271c-4.4 0-8.8 1.6-12 5l-158.8 160c-6.6 6.6-6.6 17.4 0 24l158.8 160c6.6 6.6 17.4 6.8 24 0 6.6-6.6 6.8-17.4 0-24l-146.8-148 146.8-148c6.6-6.6 6.6-17.4 0-24-3.4-3.4-7.8-5-12-5zM684 431h-322c-9.4 0-17 7.6-17 17s7.6 17 17 17h322c9.4 0 17-7.6 17-17s-7.6-17-17-17zM512 47c-221.2 0-401 179.8-401 401s179.8 401 401 401 401-179.8 401-401-179.8-401-401-401zM512 815c-202.4 0-367-164.6-367-367s164.6-367 367-367 367 164.6 367 367-164.6 367-367 367z" />
<glyph unicode="&#xe90d;" glyph-name="arrow-back-outline" d="M488 143c-4.4 0-8.8 1.6-12 5l-288 288c-6.6 6.6-6.6 17.4 0 24l288 288c6.6 6.6 17.4 6.6 24 0s6.6-17.4 0-24l-276-276 276-276c6.6-6.6 6.6-17.4 0-24-3.2-3.4-7.6-5-12-5zM824 431h-584c-9.4 0-17 7.6-17 17s7.6 17 17 17h584c9.4 0 17-7.6 17-17s-7.6-17-17-17z" />
<glyph unicode="&#xe90e;" glyph-name="arrow-down-circle-outline" d="M512 259c-4.33 0-8.66 1.644-11.974 4.932l-160 158.76c-6.666 6.614-6.708 17.376-0.094 24.042s17.378 6.708 24.042 0.094l148.026-146.88 148.026 146.878c6.668 6.614 17.43 6.572 24.042-0.094s6.57-17.428-0.094-24.042l-160-158.76c-3.314-3.286-7.644-4.93-11.974-4.93zM512 281.060c-9.388 0-17 7.612-17 17v321.94c0 9.388 7.612 17 17 17s17-7.612 17-17v-321.94c0-9.388-7.612-17-17-17zM512 47c-221.112 0-401 179.888-401 401s179.888 401 401 401 401-179.888 401-401-179.888-401-401-401zM512 815c-202.364 0-367-164.636-367-367 0-202.366 164.636-367 367-367 202.366 0 367 164.634 367 367 0 202.364-164.634 367-367 367z" />
<glyph unicode="&#xe90f;" glyph-name="arrow-down-outline" d="M512 119c-4.4 0-8.8 1.6-12 5l-288 288c-6.6 6.6-6.6 17.4 0 24s17.4 6.6 24 0l276-276 276 276c6.6 6.6 17.4 6.6 24 0s6.6-17.4 0-24l-288-288c-3.2-3.4-7.6-5-12-5zM512 159c-9.4 0-17 7.6-17 17v584c0 9.4 7.6 17 17 17s17-7.6 17-17v-584c0-9.4-7.6-17-17-17z" />
<glyph unicode="&#xe910;" glyph-name="arrow-forward-circle-outline" d="M525.2 271c-4.4 0-8.6 1.6-12 5-6.6 6.6-6.8 17.4 0 24l146.8 148-146.8 148c-6.6 6.6-6.6 17.4 0 24s17.4 6.6 24 0l158.8-160c6.6-6.6 6.6-17.4 0-24l-158.8-160c-3.2-3.4-7.6-5-12-5zM662 431h-322c-9.4 0-17 7.6-17 17s7.6 17 17 17h322c9.4 0 17-7.6 17-17s-7.6-17-17-17zM512 47c-221.2 0-401 179.8-401 401s179.8 401 401 401 401-179.8 401-401-179.8-401-401-401zM512 815c-202.4 0-367-164.6-367-367s164.6-367 367-367 367 164.6 367 367-164.6 367-367 367z" />
<glyph unicode="&#xe911;" glyph-name="arrow-forward-outline" d="M536 143c-4.4 0-8.8 1.6-12 5-6.6 6.6-6.6 17.4 0 24l276 276-276 276c-6.6 6.6-6.6 17.4 0 24s17.4 6.6 24 0l288-288c6.6-6.6 6.6-17.4 0-24l-288-288c-3.2-3.4-7.6-5-12-5zM784 431h-584c-9.4 0-17 7.6-17 17s7.6 17 17 17h584c9.4 0 17-7.6 17-17s-7.6-17-17-17z" />
<glyph unicode="&#xe912;" glyph-name="arrow-redo-circle-outline" d="M533.82 304.52v74.64c-114.14 0-169.020-26.94-217.16-77.36-10.8-11.3-30-2.64-28.58 12.86 10.9 122.9 68.28 234.18 245.74 234.18v74.64c0.032 3.23 1 6.38 2.792 9.068 1.79 2.688 4.324 4.796 7.292 6.068 2.97 1.272 6.244 1.654 9.426 1.096 3.18-0.556 6.13-2.028 8.49-4.232l169.020-159.48c1.628-1.534 2.926-3.384 3.814-5.436 0.886-2.054 1.344-4.268 1.344-6.504s-0.458-4.45-1.344-6.504c-0.888-2.052-2.186-3.902-3.814-5.436l-168.84-159.54c-2.348-2.26-5.31-3.782-8.514-4.374-3.206-0.594-6.516-0.232-9.518 1.040s-5.564 3.398-7.368 6.114c-1.804 2.714-2.77 5.9-2.78 9.16zM512 47c-221.112 0-401 179.888-401 401s179.888 401 401 401 401-179.888 401-401-179.888-401-401-401zM512 815c-202.364 0-367-164.636-367-367 0-202.366 164.636-367 367-367 202.366 0 367 164.634 367 367 0 202.364-164.634 367-367 367z" />
<glyph unicode="&#xe913;" glyph-name="arrow-redo-outline" d="M128 95c-1.8 0-3.8 0.4-5.6 1-6.8 2.4-11.4 8.8-11.4 16 0 143.2 28.4 257.2 84.6 339 69.4 101 180.8 154 331.4 157.8v175.2c0 6.8 4 13 10.4 15.6 6.2 2.6 13.6 1.4 18.4-3.4l352-336c3.4-3.2 5.2-7.6 5.2-12.2s-2-9-5.2-12.2l-352-336c-5-4.6-12.2-6-18.4-3.4s-10.4 8.8-10.4 15.6v174.8c-100-1.6-174.8-16.6-234-47.2-61-31.4-104.6-78-151.6-138-3.2-4.2-8.2-6.6-13.4-6.6zM544 321c9.4 0 17-7.6 17-17v-152.2l310.4 296.2-310.4 296.2v-152.2c0-9.4-7.6-17-17-17-77.6 0-144.8-13.4-199.8-39.8-49.2-23.6-89.8-58.4-120.6-103.4-45.6-66.8-71.6-157.6-77.4-270.8 55.8 64.4 96 90.6 131.2 108.8 67.6 35 152.2 51.2 266.6 51.2z" />
<glyph unicode="&#xe914;" glyph-name="arrow-undo-circle-outline" d="M490.2 304.6v74.6c114.2 0 169-27 217.2-77.4 10.8-11.2 30-2.6 28.6 12.8-10.8 123-68.2 234.2-245.8 234.2v74.6c0 3.2-1 6.4-2.8 9.2s-4.4 4.8-7.4 6.2c-3 1.2-6.2 1.6-9.4 1s-6.2-2-8.6-4.4l-168.8-159.4c-1.6-1.6-3-3.4-3.8-5.4s-1.4-4.2-1.4-6.6 0.4-4.4 1.4-6.6c0.8-2 2.2-4 3.8-5.4l168.8-159.6c2.4-2.2 5.4-3.8 8.6-4.4s6.6-0.2 9.6 1 5.6 3.4 7.4 6.2c1.6 2.8 2.6 6 2.6 9.4zM512 47c-221.2 0-401 179.8-401 401s179.8 401 401 401 401-179.8 401-401-179.8-401-401-401zM512 815c-202.4 0-367-164.6-367-367s164.6-367 367-367 367 164.6 367 367-164.6 367-367 367z" />
<glyph unicode="&#xe915;" glyph-name="arrow-undo-outline" d="M896 95c-5.2 0-10.2 2.4-13.4 6.6-47 60-90.6 106.6-151.6 138-59.2 30.6-134 45.8-234 47.2v-174.8c0-6.8-4-13-10.4-15.6-6.2-2.6-13.6-1.4-18.4 3.4l-352 336c-3.4 3.2-5.2 7.6-5.2 12.2s2 9 5.2 12.2l352 336c5 4.6 12.2 6 18.4 3.4s10.4-8.8 10.4-15.6v-175.2c150.6-3.6 262-56.8 331.4-157.8 56.2-81.8 84.6-196 84.6-339 0-7.2-4.6-13.8-11.4-16-1.8-0.6-3.8-1-5.6-1zM152.6 448l310.4-296.2v152.2c0 9.4 7.6 17 17 17 114.4 0 199-16.2 266.6-51.2 53.8-27.8 95.4-67 131.2-108.6-5.8 113-31.8 204-77.4 270.6-30.8 45-71.4 79.8-120.6 103.4-54.8 26.4-122 39.8-199.8 39.8-9.4 0-17 7.6-17 17v152.2l-310.4-296.2z" />
<glyph unicode="&#xe916;" glyph-name="arrow-up-circle-outline" d="M672 444.2c-4.4 0-8.6 1.6-12 5l-148 146.8-148-146.8c-6.6-6.6-17.4-6.6-24 0s-6.6 17.4 0 24l160 158.8c6.6 6.6 17.4 6.6 24 0l160-158.8c6.6-6.6 6.8-17.4 0-24-3.2-3.2-7.6-5-12-5zM512 259c-9.4 0-17 7.6-17 17v322c0 9.4 7.6 17 17 17s17-7.6 17-17v-322c0-9.4-7.6-17-17-17zM512 47c-221.2 0-401 179.8-401 401s179.8 401 401 401c221.2 0 401-179.8 401-401s-179.8-401-401-401zM512 815c-202.4 0-367-164.6-367-367s164.6-367 367-367c202.4 0 367 164.6 367 367s-164.6 367-367 367z" />
<glyph unicode="&#xe917;" glyph-name="arrow-up-outline" d="M800 455c-4.4 0-8.8 1.6-12 5l-276 276-276-276c-6.6-6.6-17.4-6.6-24 0s-6.6 17.4 0 24l288 288c6.6 6.6 17.4 6.6 24 0l288-288c6.6-6.6 6.6-17.4 0-24-3.2-3.4-7.6-5-12-5zM512 119c-9.4 0-17 7.6-17 17v584c0 9.4 7.6 17 17 17s17-7.6 17-17v-584c0-9.4-7.6-17-17-17z" />
<glyph unicode="&#xe918;" glyph-name="at-circle-outline" d="M512.2 46.8c-221.2 0-401 179.8-401 401s179.8 401 401 401 401-179.8 401-401c0-221-180-401-401-401zM512.2 814.8c-202.4 0-367-164.6-367-367s164.6-367 367-367 367 164.6 367 367-164.6 367-367 367zM493.2 207.2c-63.4 0-121.2 24.8-162.4 70-42 46-62.2 107-56.4 172.2 5.6 64 35.4 124 84 169.2s110.4 70 173.8 70c71.2 0 130-23 169.6-66.2 38-41.6 55.8-100.2 50.2-165.2-3-33.8-14.4-80.2-51.6-108.8-19.8-15.2-43.8-22.2-64-18.6-20.4 3.6-42 16.8-53.6 42.6-21.4-26.8-53.2-43-90-43-26.6 0-51.2 10.6-69 30-20.8 22.6-30.8 55.4-27.8 90 5.6 64.4 56.8 105.4 104.6 113 49.8 7.8 96.6-12.2 115.6-35l4.6-5.6-12.2-96.2c-3-34.6 9.6-57.8 33.6-62.2 8.2-1.4 22.8 0.8 37.4 12 15.2 11.6 34.2 35.8 38.4 84.8 5 56.2-9.4 104.4-41.4 139.4-33.2 36.2-83.2 55.2-144.6 55.2-113.6 0-214-93.4-224.2-208.2-4.8-55.6 12-107.4 47.6-146.2 34.8-38 83.6-59 137.4-59 39 0 64 4.4 102.6 18.2 8.8 3.2 18.6-1.4 21.8-10.4 3.2-8.8-1.4-18.6-10.4-21.8-41.8-15-70.6-20.2-113.6-20.2zM521.2 529.8c-5.6 0-10.6-0.4-15.2-1-33.8-5.2-71.8-35.8-76-82.2-2.2-25.2 4.8-48.6 19-64.2 11.4-12.4 26.6-19 43.8-19 53.2 0 80.8 43.2 84.4 86.2 0 1.2 0.2 2.2 0.6 3.2l7.2 57.8c-15.2 13.6-42.4 19.2-63.8 19.2z" />
<glyph unicode="&#xe919;" glyph-name="at-outline" d="M479 274.4c-39.8 0-76.4 15.8-102.6 44.6-30.6 33.6-45.6 82.2-41.2 133.8 4.2 47 23.6 90.8 54.8 123.4 32.2 33.6 73.8 52.2 117.2 52.2 41.4 0 79.8-16.8 107.8-47.6 31-33.8 46.2-81.6 42-131v0c-4.6-52.6-25-97.4-59-129.2-31.8-29.6-74.2-46.2-119-46.2zM507 594.4c-70.4 0-131-63.4-138.2-144.4-3.8-42 8-81.4 32.4-107.8 20.2-22 47-33.6 77.6-33.6 65.4 0 135.4 44.6 144.2 144.4 3.6 39.8-8.6 78.2-33.2 105-21.4 23.4-50.8 36.4-82.8 36.4zM640 451.4v0 0zM481 82.4c-98.6 0-188 38.4-251.8 108-64.2 70-94.8 163.2-86.2 262.4 8.6 98.2 55 190.6 130.4 260s171.2 107.6 269.6 107.6c110.8 0 201.8-35.4 263-102.2 58-63.2 85-152.6 76.2-251.8-8.2-92.4-46.8-140.2-77.6-163.8-29.4-22.6-64.8-32.8-94.4-27.6-28.2 5-52.4 20.8-68.4 44.4-17.4 25.8-24.6 60.6-21 100.8l17 192.6c0.8 9.4 9 16.2 18.4 15.4s16.2-9 15.4-18.4l-17-192.6c-5.4-60.4 17.6-101 61.6-108.8 15.8-2.8 42 1.2 67.8 21 25.6 19.6 57.4 59.6 64.4 139.8 8 90.8-15.4 168.8-67.6 225.8-54.6 59.6-137 91.2-238 91.2-185.6 0-349.8-151-366-336.4-7.8-89.6 19.6-173.6 77.4-236.6 57.4-62.6 137.8-97 226.8-97 59.6 0 95.6 4 152 27.6 8.6 3.6 18.6-0.4 22.2-9s-0.4-18.6-9-22.2c-61.4-25.6-102.2-30.2-165.2-30.2z" />
<glyph unicode="&#xe91a;" glyph-name="attach-outline" d="M512 75c-27.8 0-54.8 5.4-80.4 16.2-25.6 10.6-48.4 26.2-67.8 45.8-19.4 19.8-34.6 42.8-44.8 68.6-10.4 25.6-15.4 52.8-15 80.4v379.2c-0.2 20.2 3.6 40.2 11.2 59s18.8 35.8 33 50.2 31 25.8 49.8 33.6c18.8 7.8 38.6 11.8 59 11.8s40.2-4 59-11.8 35.6-19.2 49.8-33.6c14.2-14.4 25.4-31.4 33-50.2s11.4-38.8 11-59l-0.4-377.2c-0.4-25.6-10.6-49.8-29-67.8-18.2-18-42.4-28-68.2-28-25.6 0-49.8 10-68.2 28-18.2 18-28.6 42-29 67.8v288c0 9.4 7.6 17 17 17s17-7.6 17-17v-287.6c0.2-16.6 7-32.2 18.8-43.8 11.8-11.8 27.6-18.2 44.4-18.2 16.6 0 32.4 6.4 44.4 18.2 11.8 11.6 18.6 27.2 18.8 44l0.2 377c0.2 16-2.8 31.4-8.6 46.2-6 14.6-14.6 27.8-25.6 39-11.2 11.2-24.2 20-38.8 26.2-14.6 6-30 9.2-45.8 9.2s-31.2-3-45.8-9.2c-14.6-6-27.6-14.8-38.8-26.2-11.2-11.2-19.8-24.4-25.6-39-6-14.6-8.8-30.2-8.6-46v-380c-0.4-23.2 3.8-45.8 12.6-67.4 8.6-21.6 21.2-40.8 37.6-57.4s35.4-29.4 56.8-38.4 44-13.4 67.2-13.4 45.8 4.6 67.2 13.4c21.4 9 40.4 21.8 56.8 38.4 16.2 16.6 29 35.8 37.6 57.4s12.8 44.2 12.6 67.4v354.8c0 9.4 7.6 17 17 17s17-7.6 17-17v-354.6c0.4-27.6-4.6-54.8-15-80.4-10.4-25.8-25.4-48.8-44.8-68.6s-42.2-35.2-67.8-45.8c-26-10.8-53-16.2-80.8-16.2z" />
<glyph unicode="&#xe91b;" glyph-name="backspace-outline" d="M313.8 143c-10.8 0-21.2 2.2-30.8 6.6-9.8 4.4-18.2 10.8-25.4 18.8-0.8 0.8-1.4 1.8-2 2.6l-177.2 267.6c-3.8 5.6-3.8 13 0 18.8l177.8 268.4c0.4 0.6 0.8 1.2 1.4 1.8 7 8 15.6 14.4 25.4 18.8s20.2 6.6 30.8 6.6h492.6c20 0 38.6-7.8 52.8-22 14-14 21.8-32.8 22-52.6v-460.6c0-20-7.8-38.6-22-52.8-14-14-32.8-21.8-52.6-22h-492.8zM284 190c3.6-4 8-7 13-9.4 5.4-2.4 11-3.6 16.8-3.6h492.6c10.8 0 21 4.4 28.8 12 7.6 7.6 12 18 12 28.8v460.4c0 10.8-4.4 21-12 28.8-7.6 7.6-18 12-28.8 12h-492.6c-5.8 0-11.4-1.2-16.8-3.6-5-2.2-9.4-5.4-13-9.4l-171-258 171-258zM413.4 298.4c-4.4 0-8.8 1.6-12 5-6.6 6.6-6.6 17.4 0 24l260 260c6.6 6.6 17.4 6.6 24 0s6.6-17.4 0-24l-260-260c-3.4-3.4-7.8-5-12-5zM673.4 298.4c-4.4 0-8.8 1.6-12 5l-260 260c-6.6 6.6-6.6 17.4 0 24s17.4 6.6 24 0l260-260c6.6-6.6 6.6-17.4 0-24-3.4-3.4-7.8-5-12-5z" />
<glyph unicode="&#xe91c;" glyph-name="bandage-outline" d="M240-17.2c-51.6 0-100 20-136.6 56.6 0 0 0 0-0.2 0.2-75.4 75.4-75.4 198 0 273.2l544 544c36.4 36.4 85 56.6 136.6 56.6s100.2-20 136.6-56.6c0 0 0 0 0.2-0.2 36.4-36.4 56.6-85 56.6-136.6s-20-100.2-56.6-136.6l-544-544c-36.4-36.6-85-56.6-136.6-56.6zM127.4 63.6c0-0.2 0-0.2 0 0 62.2-62.2 163.2-62.2 225.2 0l544 544c30 30 46.6 70 46.6 112.6s-16.6 82.6-46.6 112.6c0 0 0 0-0.2 0.2-30 30-70 46.6-112.6 46.6s-82.6-16.6-112.6-46.6l-544-544c-61.8-62.4-61.8-163.4 0.2-225.4zM500.6 197.4c-20.8 0-41.4 7.8-57.2 23.6l-158.4 158.4c-31.6 31.6-31.6 83 0 114.6l186.6 186.6c15.2 15.2 35.6 23.8 57.2 23.8s42-8.4 57.2-23.8l158.4-158.4c31.6-31.6 31.6-83 0-114.6l-186.4-186.6c-15.8-15.8-36.6-23.6-57.4-23.6zM529 670.4c-12.6 0-24.4-4.8-33.2-13.8l-186.8-186.6c-18.4-18.4-18.4-48.2 0-66.4l158.4-158.4c8.8-8.8 20.6-13.8 33.2-13.8s24.4 4.8 33.2 13.8l186.6 186.6c8.8 8.8 13.8 20.6 13.8 33.2s-4.8 24.4-13.8 33.2l-158.4 158.4c-8.6 8.8-20.4 13.8-33 13.8zM512 512c17.6 0 32 14.4 32 32s-14.4 32-32 32-32-14.4-32-32 14.4-32 32-32zM608 416c17.6 0 32 14.4 32 32s-14.4 32-32 32-32-14.4-32-32c0-17.6 14.4-32 32-32zM416 416c17.6 0 32 14.4 32 32s-14.4 32-32 32-32-14.4-32-32c0-17.6 14.4-32 32-32zM512 320c17.6 0 32 14.4 32 32s-14.4 32-32 32-32-14.4-32-32 14.4-32 32-32z" />
<glyph unicode="&#xe91d;" glyph-name="bar-chart-outline" d="M960-17h-864c-13 0-25.4 5-34.6 14.4-9.2 9.2-14.4 21.6-14.4 34.6v864c0 9.4 7.6 17 17 17s17-7.6 17-17v-864c0-4 1.6-7.8 4.4-10.6s6.6-4.4 10.6-4.4h864c9.4 0 17-7.6 17-17s-7.6-17-17-17zM312 111h-80c-31.4 0-57 25.6-57 57v304c0 31.4 25.6 57 57 57h80c31.4 0 57-25.6 57-57v-304c0-31.4-25.6-57-57-57zM232 495c-12.6 0-23-10.4-23-23v-304c0-12.6 10.4-23 23-23h80c12.6 0 23 10.4 23 23v304c0 12.6-10.4 23-23 23h-80zM600 111h-80c-31.4 0-57 25.6-57 57v400c0 31.4 25.6 57 57 57h80c31.4 0 57-25.6 57-57v-400c0-31.4-25.6-57-57-57zM520 591c-12.6 0-23-10.4-23-23v-400c0-12.6 10.4-23 23-23h80c12.6 0 23 10.4 23 23v400c0 12.6-10.4 23-23 23h-80zM887.2 111h-80c-31.4 0-57 25.6-57 57v528c0 31.4 25.6 57 57 57h80c31.4 0 57-25.6 57-57v-528c0-31.4-25.4-57-57-57zM807.2 719c-12.6 0-23-10.4-23-23v-528c0-12.6 10.4-23 23-23h80c12.6 0 23 10.4 23 23v528c0 12.6-10.4 23-23 23h-80z" />
<glyph unicode="&#xe91e;" glyph-name="barbell-outline" d="M928 431h-832c-9.4 0-17 7.6-17 17s7.6 17 17 17h832c9.4 0 17-7.6 17-17s-7.6-17-17-17zM800 175c-27 0-49 22-49 49v448c0 27 22 49 49 49s49-22 49-49v-448c0-27-22-49-49-49zM800 687c-8.2 0-15-6.8-15-15v-448c0-8.2 6.8-15 15-15s15 6.8 15 15v448c0 8.2-6.8 15-15 15zM224 175c-27 0-49 22-49 49v448c0 27 22 49 49 49s49-22 49-49v-448c0-27-22-49-49-49zM224 687c-8.2 0-15-6.8-15-15v-448c0-8.2 6.8-15 15-15s15 6.8 15 15v448c0 8.2-6.8 15-15 15zM80 303c-18.2 0-33 14.8-33 33v224c0 18.2 14.8 33 33 33s33-14.8 33-33v-224c0-18.2-14.8-33-33-33zM944 303c-18.2 0-33 14.8-33 33v224c0 18.2 14.8 33 33 33s33-14.8 33-33v-224c0-18.2-14.8-33-33-33z" />
<glyph unicode="&#xe91f;" glyph-name="barcode-outline" d="M768 142.4c-9.4 0-17 7.6-17 16.8 0 9.4 7.4 17 16.8 17.2l70.2 0.6c11 0 21.2 4.4 28.8 12s12 18 12 28.8v460.4c0 10.8-4.4 21-12 28.8-7.6 7.6-17.8 12-28.6 12l-70.4-0.6c-9.4 0-17 7.6-17 16.8 0 9.4 7.4 17 16.8 17.2l70.4 0.6c20 0 38.6-7.8 52.6-22 14-14 21.8-32.8 22-52.6v-460.6c0-20-7.8-38.6-22-52.8-14-14-32.8-21.8-52.6-22l-70-0.6c0.2 0 0 0 0 0zM182.6 142.4c-40.2 0-71.6 32.8-71.6 74.8v460.4c0 42 31.4 74.8 71.4 74.8l73.6 0.6c9.4 0 17-7.6 17-16.8 0-9.4-7.4-17-16.8-17.2l-73.6-0.6c-21.4 0-37.6-17.6-37.6-40.8v-460.6c0-23.2 16-40.8 37.4-40.8l73.6 0.6c9.4 0 17-7.6 17-16.8 0-9.4-7.4-17-16.8-17.2l-73.6-0.4zM768 303c-9.4 0-17 7.6-17 17v256c0 9.4 7.6 17 17 17s17-7.6 17-17v-256c0-9.4-7.6-17-17-17zM640 239c-9.4 0-17 7.6-17 17v384c0 9.4 7.6 17 17 17s17-7.6 17-17v-384c0-9.4-7.6-17-17-17zM512 271c-9.4 0-17 7.6-17 17v320c0 9.4 7.6 17 17 17s17-7.6 17-17v-320c0-9.4-7.6-17-17-17zM384 239c-9.4 0-17 7.6-17 17v384c0 9.4 7.6 17 17 17s17-7.6 17-17v-384c0-9.4-7.6-17-17-17zM256 303c-9.4 0-17 7.6-17 17v256c0 9.4 7.6 17 17 17s17-7.6 17-17v-256c0-9.4-7.6-17-17-17z" />
<glyph unicode="&#xe920;" glyph-name="baseball-outline" d="M467.4 690.6c-7.4 0-14.2 4.8-16.4 12.2-2.6 9 2.6 18.4 11.6 21l121.2 35.2c9 2.6 18.4-2.6 21-11.6s-2.6-18.4-11.6-21l-121.2-35.2c-1.4-0.4-3-0.6-4.6-0.6zM531.2 558c-5.4 0-10.6 2.6-13.8 7.2-5.4 7.6-3.6 18.2 4 23.6l103 72.8c7.6 5.4 18.2 3.6 23.6-4s3.6-18.2-4-23.6l-103-72.8c-3-2.2-6.4-3.2-9.8-3.2zM639 450.2c-3.4 0-6.8 1-9.8 3.2-7.6 5.4-9.4 16-4 23.6l72.8 103c5.4 7.6 16 9.4 23.6 4s9.4-16 4-23.6l-72.8-103c-3.2-4.6-8.6-7.2-13.8-7.2zM771.6 386.4c-1.6 0-3.2 0.2-4.8 0.6-9 2.6-14.2 12-11.6 21l35.2 121.2c2.6 9 12 14.2 21 11.6s14.2-12 11.6-21l-35-121.2c-2.2-7.4-9-12.2-16.4-12.2zM512 47c-221.2 0-401 179.8-401 401s179.8 401 401 401 401-179.8 401-401-179.8-401-401-401zM512 815c-202.4 0-367-164.6-367-367s164.6-367 367-367 367 164.6 367 367-164.6 367-367 367zM866 433c-0.4 0-1 0-1.4 0-96.6 7.8-187.2 50.2-254.8 119.6s-108 161-113.4 257.8c-0.6 9.4 6.6 17.4 16 18s17.4-6.6 18-16c5-88.6 41.8-172.4 103.8-235.8s144.8-102.4 233.2-109.6c9.4-0.8 16.4-9 15.6-18.4-0.8-9-8.4-15.6-17-15.6zM217 354.4c-1.6 0-3.2 0.2-4.8 0.6-9 2.6-14.2 12-11.6 21l35.2 121.2c2.6 9 12 14.2 21 11.6s14.2-12 11.6-21l-35.2-121.2c-2-7.4-8.8-12.2-16.2-12.2zM312 308.6c-3.4 0-6.8 1-9.8 3.2-7.6 5.4-9.4 16-4 23.6l72.8 103c5.4 7.6 16 9.4 23.6 4s9.4-16 4-23.6l-72.6-103c-3.4-4.6-8.6-7.2-14-7.2zM389.6 231c-5.4 0-10.6 2.6-13.8 7.2-5.4 7.6-3.6 18.2 4 23.6l103 72.8c7.6 5.4 18.2 3.6 23.6-4s3.6-18.2-4-23.6l-103-72.8c-3-2-6.4-3.2-9.8-3.2zM435.4 136c-7.4 0-14.2 4.8-16.4 12.2-2.6 9 2.6 18.4 11.6 21l121.2 35.2c9 2.6 18.4-2.6 21-11.6s-2.6-18.4-11.6-21l-121.2-35.2c-1.4-0.4-3-0.6-4.6-0.6zM510 75.8c-8.8 0-16.2 6.8-17 15.6-6.8 88.6-45.6 171.8-109.2 234s-147.4 99.2-236.2 104.2c-9.4 0.6-16.6 8.6-16 18s8.6 16.6 18 16c97-5.4 188.8-45.8 258.2-113.8s111.8-158.8 119.2-255.6c0.8-9.4-6.2-17.6-15.6-18.2-0.6-0.2-1-0.2-1.4-0.2z" />
<glyph unicode="&#xe921;" glyph-name="basket-outline" d="M278.8 84c-21 0-42 7-59 19.8s-29.6 31.2-35.2 51.6l-103.4 364.4c-1.6 5.2-2.4 10.6-2.2 16 0.2 15.2 6.2 29.6 17.2 40.4 10.8 10.8 25.4 16.8 40.6 16.8v0h750.4c15.4 0 29.8-6 40.6-16.8 11-10.8 17-25.2 17.2-40.6 0-0.6 0-1.4 0-2l-1.2-11c-0.2-1-0.2-1.8-0.6-2.8l-103.4-364.6c-6-20.6-18.6-38.8-35.6-51.6s-38-19.8-59.2-19.8v0h-465.8c-0.2 0.2-0.2 0.2-0.4 0.2zM136.8 559c-6.4 0-12.2-2.4-16.8-6.8-4.4-4.4-7-10.4-7-16.6 0-2 0.2-4 0.8-5.8 0-0.2 0-0.2 0.2-0.4l103.4-364.6c3.8-13.4 12-25.4 23-33.8s25-13 38.8-12.8h465.6c14 0 27.8 4.6 38.8 13 11.2 8.4 19.4 20.4 23.4 33.8l103 362.8 1 8.4c-0.2 6-2.8 11.6-7 15.8-4.4 4.4-10.4 6.8-16.8 6.8v0h-750.4c0 0.2 0 0.2 0 0.2zM523.4 238.8v0c-20.2 0-39.6 6-56.2 17.2s-29.4 27-37 45.4c-7.6 18.6-9.6 38.8-5.6 58.4s13.6 37.6 27.8 51.6c14.2 14.2 32.2 23.6 51.8 27.6 19.6 3.8 39.8 1.8 58.4-5.8s34.2-20.6 45.4-37.2c11.2-16.6 17-36 17-56.2-0.2-27.2-10.8-52.6-30-71.6-19-18.8-44.6-29.4-71.6-29.4zM523.8 407.2c-4.4 0-8.6-0.4-13-1.2-13-2.6-25-8.8-34.4-18.2s-15.8-21.2-18.4-34.2-1.4-26.4 3.6-38.8c5-12.4 13.6-22.8 24.6-30.2s23.8-11.4 37.2-11.4c18 0 34.8 7 47.6 19.6s19.8 29.6 20 47.6c0 13.2-4 26.2-11.2 37.2-7.4 11-17.8 19.6-30 24.8-8.4 3-17.2 4.8-26 4.8zM690.4 565.8l-178.4 237.8-178.4-237.8-27.2 20.4 192 256c3.2 4.2 8.2 6.8 13.6 6.8s10.4-2.6 13.6-6.8l192-256-27.2-20.4z" />
<glyph unicode="&#xe922;" glyph-name="basketball-outline" d="M512 47c-221.112 0-401 179.888-401 401s179.888 401 401 401 401-179.888 401-401-179.888-401-401-401zM512 815c-202.364 0-367-164.636-367-367 0-202.366 164.636-367 367-367 202.366 0 367 164.634 367 367 0 202.364-164.634 367-367 367zM865.9 432.9c-0.458 0-0.918 0.018-1.382 0.054-96.642 7.772-187.156 50.27-254.868 119.666s-107.97 160.928-113.364 257.732c-0.522 9.374 6.654 17.396 16.028 17.918 9.368 0.518 17.396-6.654 17.92-16.028 4.936-88.596 41.782-172.366 103.752-235.878s144.808-102.408 233.258-109.52c9.358-0.752 16.334-8.95 15.582-18.308-0.714-8.894-8.156-15.636-16.926-15.636zM509.982 75.78c-8.794 0-16.242 6.776-16.93 15.692-6.848 88.674-45.618 171.774-109.166 233.99-63.552 62.218-147.456 99.218-236.252 104.186-9.374 0.526-16.548 8.548-16.024 17.922s8.582 16.51 17.922 16.024c97.024-5.426 188.7-45.854 258.14-113.836 69.438-67.982 111.8-158.782 119.28-255.67 0.722-9.362-6.28-17.536-15.64-18.258-0.448-0.036-0.892-0.050-1.33-0.050zM783.52 159.48c-4.352 0-8.702 1.66-12.022 4.978l-543.038 543.042c-6.64 6.638-6.64 17.402 0 24.042 6.638 6.638 17.402 6.638 24.042 0l543.040-543.040c6.638-6.638 6.638-17.404 0-24.042-3.322-3.32-7.67-4.98-12.022-4.98zM240.48 159.48c-4.35 0-8.702 1.66-12.020 4.978-6.64 6.638-6.64 17.404 0 24.042l543.038 543.040c6.64 6.638 17.402 6.638 24.042 0 6.638-6.638 6.638-17.402 0-24.042l-543.040-543.040c-3.318-3.318-7.668-4.978-12.020-4.978z" />
<glyph unicode="&#xe923;" glyph-name="battery-charging-outline" d="M96 315.4v265.2c0 15.8 6.2 30.8 17.4 42s26.2 17.4 42 17.4h274.8l48.8 64h-323.6c-32.8 0-64-13-87.2-36.2s-36.2-54.4-36.2-87.2v-265.2c0-32.8 13-64 36.2-87.2s54.4-36.2 87.2-36.2h193.8c-0.6 4.8-0.4 9.8 0.6 14.6l0.4 1.6 0.4 1.4 13 46.4h-208c-15.8 0-30.8 6.2-42 17.4-11.4 11.2-17.6 26.2-17.6 42zM772.6 704h-197.2c0.6-4.8 0.4-9.6-0.6-14.4l-0.8-2.8-13-46.6h211.6c15.8 0 30.8-6.2 42-17.4s17.4-26.2 17.4-42v-265.2c0-15.8-6.2-30.8-17.4-42s-26.2-17.4-42-17.4h-278.6l-48.8-64h327.4c32.8 0 64 13 87.2 36.2s36.2 54.4 36.2 87.2v265c0 32.8-13 64-36.2 87.2s-54.4 36.2-87.2 36.2zM325.2 371.6c-8.8 0-17.6 2.4-25.2 7s-13.8 11.2-18 19c-4.2 8-6.2 17.2-5.8 26.2 0.4 9.2 3.4 18 8.6 25.4l0.6 1 0.6 0.8 109 142.8h-215.6c-10.6 0-20.8-4.2-28.2-11.8-7.6-7.6-11.8-17.6-11.8-28.2v-212c0-10.6 4.2-20.8 11.8-28.2s17.6-11.8 28.2-11.8h196.8l19.6 69.8h-70.6zM552.2 398.2l54.2 71c0.8 1.2 1.2 2.4 1.6 3.8 0 0.4 0.2 0.8 0.2 1.4 0 0.8 0 1.8-0.2 2.6-0.2 1.2-0.6 2.4-1.4 3.6-0.4 0.6-1 1.4-1.6 1.8-0.2 0.2-0.6 0.6-1 0.8-0.6 0.4-1.4 0.8-2.2 1.2-0.8 0.2-1.8 0.4-2.6 0.4h-123.2l24.2 86.4 6.4 23 12.4 44.4 1 3.6 15.6 55.6c0 0.4 0 0.8 0 1.2 0 0.2 0 0.2 0 0.4s0 0.6 0 0.8c-0.2 0.2 0 0.2 0 0.2 0 0.4-0.2 0.6-0.4 0.8s-0.4 0.6-0.6 0.8l-0.2 0.2c-0.2 0.2-0.4 0.4-0.4 0.4l-0.2 0.2c-0.2 0.2-0.6 0.4-0.8 0.4-0.2 0.2-0.6 0.2-0.8 0.2h-1c-0.2 0-0.6 0-1 0-0.2 0-0.6-0.2-0.8-0.2l-0.2-0.2-0.6-0.4-0.2-0.2c-0.2-0.2-0.6-0.6-0.8-0.8l-209.2-274.2c-0.4-0.6-0.6-1-0.8-1.6-0.4-0.6-0.6-1.4-0.6-2.2-0.2-0.8-0.2-1.8-0.2-2.6 0-1.4 0.4-2.8 1.2-4.2 0.6-1.2 1.6-2.4 2.8-3.2 0.4-0.2 0.8-0.4 1-0.6 1.2-0.6 2.4-0.8 3.8-0.8h123.2l-59.6-212.8c0-0.4 0-0.8 0-1.2v-0.2c0-0.2 0-0.6 0.2-0.8v-0.2c0-0.4 0.2-0.6 0.4-1 0.2-0.2 0.4-0.6 0.6-0.8l0.6-0.6c0 0 0.2 0 0.2-0.2 0.2-0.2 0.6-0.4 0.8-0.4 0.2-0.2 0.6-0.2 0.8-0.2h0.2c0.2 0 0.4 0 0.6 0h0.2c0.4 0 0.6 0 0.8 0.2 0.2 0 0.6 0.2 0.8 0.4l0.2 0.2 0.6 0.4 0.2 0.2c0.2 0.2 0.6 0.6 0.8 0.8l46.6 61 35 46 73.4 95.2zM639 446.2l-1-1.2-109-143h219.6c10.6 0 20.8 4.2 28.2 11.8 7.6 7.6 11.8 17.6 11.8 28.2v212c0 10.6-4.2 20.8-11.8 28.2-7.6 7.6-17.6 11.8-28.2 11.8h-200.6l-19.4-69.4h70.4c8.8 0 17.4-2.4 25-6.8s13.8-11 18-18.6c4.4-8 6.4-17 6-26s-3.2-17.8-8-25.6l-1-1.4zM960 554.6c-8.4 0-16.6-3.4-22.6-9.4s-9.4-14.2-9.4-22.6v-149.4c0-8.4 3.4-16.6 9.4-22.6s14.2-9.4 22.6-9.4 16.6 3.4 22.6 9.4 9.4 14.2 9.4 22.6v149.4c0 8.4-3.4 16.6-9.4 22.6s-14.2 9.4-22.6 9.4z" />
<glyph unicode="&#xe924;" glyph-name="battery-dead-outline" d="M770.6 207h-617.2c-59.8 0-108.4 48.6-108.4 108.4v265.2c0 59.8 48.6 108.4 108.4 108.4h617.2c59.8 0 108.4-48.6 108.4-108.4v-265.2c0-59.8-48.6-108.4-108.4-108.4zM153.4 655c-41 0-74.4-33.4-74.4-74.4v-265.2c0-41 33.4-74.4 74.4-74.4h617.2c41 0 74.4 33.4 74.4 74.4v265.2c0 41-33.4 74.4-74.4 74.4h-617.2zM958 356.4c-9.4 0-17 7.6-17 17v149.4c0 9.4 7.6 17 17 17s17-7.6 17-17v-149.4c0-9.4-7.6-17-17-17z" />
<glyph unicode="&#xe925;" glyph-name="battery-full-outline" d="M772.6 207h-617.2c-59.8 0-108.4 48.6-108.4 108.4v265.2c0 59.8 48.6 108.4 108.4 108.4h617.2c59.8 0 108.4-48.6 108.4-108.4v-265.2c0-59.8-48.6-108.4-108.4-108.4zM155.4 655c-41 0-74.4-33.4-74.4-74.4v-265.2c0-41 33.4-74.4 74.4-74.4h617.2c41 0 74.4 33.4 74.4 74.4v265.2c0 41-33.4 74.4-74.4 74.4h-617.2zM748.6 562.2h-569.2c-4.4 0-8-3.6-8-8v-212.2c0-4.4 3.6-8 8-8h569.2c4.4 0 8 3.6 8 8v212.2c0 4.4-3.6 8-8 8zM748.6 316.8h-569.2c-13.8 0-25 11.2-25 25v212.4c0 13.8 11.2 25 25 25h569.2c13.8 0 25-11.2 25-25v-212.2c0-14-11.2-25.2-25-25.2zM188.4 350.8h551.2v194.2h-551.2v-194.2zM748.6 545.2v0 0zM960 356.4c-9.4 0-17 7.6-17 17v149.4c0 9.4 7.6 17 17 17s17-7.6 17-17v-149.4c0-9.4-7.6-17-17-17z" />
<glyph unicode="&#xe926;" glyph-name="battery-half-outline" d="M772.6 207h-617.2c-59.8 0-108.4 48.6-108.4 108.4v265.2c0 59.8 48.6 108.4 108.4 108.4h617.2c59.8 0 108.4-48.6 108.4-108.4v-265.2c0-59.8-48.6-108.4-108.4-108.4zM155.4 655c-41 0-74.4-33.4-74.4-74.4v-265.2c0-41 33.4-74.4 74.4-74.4h617.2c41 0 74.4 33.4 74.4 74.4v265.2c0 41-33.4 74.4-74.4 74.4h-617.2zM472 562.2h-292.6c-4.4 0-8-3.6-8-8v-212.2c0-4.4 3.6-8 8-8h292.6c4.4 0 8 3.6 8 8v212.2c0 4.4-3.6 8-8 8zM472 316.8h-292.6c-13.8 0-25 11.2-25 25v212.4c0 13.8 11.2 25 25 25h292.6c13.8 0 25-11.2 25-25v-212.2c0-14-11.2-25.2-25-25.2zM188.4 350.8h274.6v194.2h-274.6v-194.2zM472 545.2v0 0zM960 356.4c-9.4 0-17 7.6-17 17v149.4c0 9.4 7.6 17 17 17s17-7.6 17-17v-149.4c0-9.4-7.6-17-17-17z" />
<glyph unicode="&#xe927;" glyph-name="beaker-outline" d="M736 15h-384c-38.8 0-75.2 15-102.6 42.4s-42.4 63.8-42.4 102.6v528c0 49.4-20.8 54.8-81.4 63.2-8.4 1.2-14.6 8.4-14.6 16.8 0 18 7.2 45.4 27.6 68.4 32.4 36.8 81.8 44.6 117.4 44.6h634.4c13.2 0 22.6-9 22.6-22 0-7-3.8-12.2-7.4-17-0.8-1.2-1.6-2.2-2.2-3 0-0.2-0.2-0.2-0.2-0.4-0.2-0.4-22.4-36.4-22.4-70.6v-608c0-38.8-15-75.2-42.4-102.6-27.2-27.4-63.6-42.4-102.4-42.4zM146.8 782.4c48.6-7.6 94.2-21.2 94.2-94.4v-528c0-29.6 11.6-57.6 32.6-78.4 21-21 48.8-32.6 78.4-32.6h384c29.6 0 57.6 11.6 78.4 32.6 21 21 32.6 48.8 32.6 78.4v608c0 32 13.8 63.2 22 79h-613c-74 0-102-36.6-109.2-64.6zM890.4 847v0 0zM864 591h-640c-9.4 0-17 7.6-17 17s7.6 17 17 17h640c9.4 0 17-7.6 17-17s-7.6-17-17-17z" />
<glyph unicode="&#xe928;" glyph-name="bed-outline" d="M832 463h-640c-9.4 0-17 7.6-17 17v208c0 26 10.2 50.2 28.4 68.6 18.2 18.2 42.6 28.4 68.4 28.4h480c26 0 50.2-10.2 68.6-28.4 18.2-18.2 28.4-42.6 28.4-68.4v-208c0.2-9.6-7.4-17.2-16.8-17.2zM209 497h606v191c0 16.8-6.6 32.6-18.6 44.4-11.8 11.8-27.8 18.4-44.6 18.6h-479.8c-16.8 0-32.6-6.6-44.4-18.6-11.8-11.8-18.4-27.8-18.6-44.6v-190.8zM928 111c-9.4 0-17 7.6-17 17v224c0 29.6-11.6 57.4-32.6 78.4s-48.8 32.6-78.4 32.6h-576c-29.6 0-57.4-11.6-78.4-32.6s-32.6-48.8-32.6-78.4v-224c0-9.4-7.6-17-17-17s-17 7.6-17 17v224c0.2 38.8 15.2 75 42.6 102.4s63.8 42.4 102.4 42.6h576c38.8-0.2 75-15.2 102.4-42.6s42.4-63.6 42.6-102.4v-224c0-9.4-7.6-17-17-17zM928 111c-9.4 0-17 7.6-17 17v16c0 8.2-3.2 16-9.2 21.8-5.8 5.8-13.6 9-22 9.2h-735.8c-8.2 0-16-3.2-21.8-9.2-5.8-5.8-9-13.6-9.2-22v-16c0-9.4-7.6-17-17-17s-17 7.6-17 17v16c0 17.4 6.8 33.6 19 46 12.2 12.2 28.6 19 45.8 19h736c17.4 0 33.6-6.8 46-19 12.2-12.2 19-28.6 19-45.8v-16c0.2-9.4-7.4-17-16.8-17zM512 463c-9.4 0-17 7.6-17 17v32c0 12.6-5 24.4-13.8 33.2s-20.6 13.8-33.2 13.8h-160c-12.6 0-24.4-5-33.2-13.8s-13.8-20.6-13.8-33.2v-32c0-9.4-7.6-17-17-17s-17 7.6-17 17v32c0 21.6 8.6 42 23.8 57.2s35.6 23.8 57.2 23.8h160c21.6 0 42-8.6 57.2-23.8s23.8-35.6 23.8-57.2v-32c0-9.4-7.6-17-17-17zM800 463c-9.4 0-17 7.6-17 17v32c0 12.6-5 24.4-13.8 33.2s-20.6 13.8-33.2 13.8h-160c-12.6 0-24.4-5-33.2-13.8s-13.8-20.6-13.8-33.2v-32c0-9.4-7.6-17-17-17s-17 7.6-17 17v32c0 21.6 8.6 42 23.8 57.2s35.6 23.8 57.2 23.8h160c21.6 0 42-8.6 57.2-23.8s23.8-35.6 23.8-57.2v-32c0-9.4-7.6-17-17-17z" />
<glyph unicode="&#xe929;" glyph-name="beer-outline" d="M272-17c-26 0-50.2 10.2-68.6 28.4-18.2 18.2-28.4 42.6-28.4 68.4v432.2c0 9.4 7.6 17 17 17s17-7.6 17-17v-432c0-16.8 6.6-32.6 18.6-44.4 11.8-11.8 27.8-18.4 44.6-18.6h352c16.8 0 32.6 6.6 44.4 18.6 11.8 11.8 18.4 27.8 18.6 44.6v479.8c0 9.4 7.6 17 17 17s17-7.6 17-17v-480c0-26-10.2-50.2-28.4-68.6-18.2-18.2-42.6-28.4-68.4-28.4h-352.4zM704 111c-9.4 0-17 7.6-17 17s7.6 17 17 17h80c25.4 0 49.2 10 67 28 18 18 27.8 41.8 28 67.2v160c0 25.4-10 49.2-28 67-18 18-41.8 27.8-67.2 28h-80c-9.4 0-17 7.6-17 17s7.6 17 17 17h80c34.4 0 66.8-13.6 91.2-37.8 24.4-24.4 37.8-56.6 37.8-91v-160c0-34.4-13.6-66.8-37.8-91.2s-56.6-37.8-91-37.8h-80zM448 111c-9.4 0-17 7.6-17 17v320c0 9.4 7.6 17 17 17s17-7.6 17-17v-320c0-9.4-7.6-17-17-17zM576 111c-9.4 0-17 7.6-17 17v320c0 9.4 7.6 17 17 17s17-7.6 17-17v-320c0-9.4-7.6-17-17-17zM320 111c-9.4 0-17 7.6-17 17v320c0 9.4 7.6 17 17 17s17-7.6 17-17v-320c0-9.4-7.6-17-17-17zM224 495c-30.2 0-58.6 11.8-80 33-21.4 21.4-33 49.8-33 80s11.8 58.6 33 80c21.4 21.4 49.8 33 80 33 0.2 0 0.4 0 0.8 0 22.2-1 43.2-8.2 61.2-21.2 7.6-5.4 9.4-16.2 3.8-23.8-5.4-7.6-16.2-9.4-23.8-3.8-12.4 9-27.2 14-42.4 14.8-21 0-40.6-8.2-55.6-23.2s-23.2-34.8-23.2-55.8 8.2-41 23.2-55.8c15-15 34.8-23.2 55.8-23.2 22.8 0 63.4 6.8 80 52.8 2.4 6.8 8.8 11.2 16 11.2h244c4.6 0 8.8-1.8 12-5 15.2-15.2 43.2-27 64-27 21.2 0 41 8.2 55.8 23.2 15 15 23.2 34.8 23.2 55.8s-8.2 41-23.2 55.8c-15 15-34.8 23.2-55.8 23.2-9.4 0-17 7.6-17 17s7.6 17 17 17c30.2 0 58.6-11.8 80-33 21.4-21.4 33-49.8 33-80s-11.8-58.6-33-80c-21.4-21.4-49.8-33-80-33-27.2 0-60.8 13.2-82.6 32h-226c-19.2-40.4-58.6-64-107.2-64zM183.8 678.2c-4.4 0-8.6 1.6-12 5-9.6 9.4-17 20.6-22 33.2s-7.2 25.6-6.8 39.2c0.4 13.4 3.6 26.4 9.6 38.6 5.8 12.2 14 22.8 24.2 31.6s22 15.2 34.8 19.2c12.8 4 26.2 5.2 39.6 3.6s26-5.8 37.8-12.6c11.6-6.8 21.6-15.8 29.6-26.6 7-9.6 18.6-27.6 18.6-41.2 0-9.4-7.6-17-17-17-9.2 0-16.8 7.4-17 16.4-0.8 3.6-6.4 13.8-12.2 21.6-5.2 7-11.6 12.8-19.2 17.2s-15.8 7.2-24.4 8.2c-8.6 1-17.4 0.2-25.8-2.4s-16-6.8-22.6-12.4c-6.6-5.8-12-12.6-15.8-20.4s-5.8-16.4-6.2-25c-0.4-8.8 1.2-17.4 4.4-25.4 3.2-8.2 8-15.4 14.2-21.6 6.6-6.6 6.8-17.4 0.2-24-3.4-3.6-7.8-5.2-12-5.2zM303 768c0 0 0 0 0 0s0 0 0 0zM616.6 653c-1 0-2.2 0-3.2 0.4-9.2 1.8-15.2 10.6-13.6 19.8 2 10.6 3 21.6 3 32.4 0 46.4-17.8 89.8-49.8 122.6s-75 50.8-121 50.8c-48.6 0-93.8-21.2-127.6-59.6-6.2-7-17-7.8-24-1.6s-7.8 17-1.6 24c40.2 46 94.6 71.2 153.2 71.2 55.2 0 106.8-21.6 145.4-61 38.4-39.2 59.6-91.2 59.6-146.4 0-13-1.2-26-3.6-38.8-1.6-8.2-8.8-13.8-16.8-13.8z" />
<glyph unicode="&#xe92a;" glyph-name="bicycle-outline" d="M776 63c-11 0-22 1-33 3.2-32.8 6.6-62.8 22.6-86.6 46.2-23.8 23.8-39.8 53.6-46.2 86.6-6.6 32.8-3.2 66.6 9.6 97.6s34.4 57.2 62.2 75.8c27.8 18.6 60.4 28.4 93.8 28.4v0c45-0.2 87.4-17.8 119.4-49.6 31.8-31.8 49.4-74.2 49.6-119.4 0-33.6-9.8-66-28.4-94-18.6-27.8-44.8-49.4-75.8-62.2-20.6-8.2-42.4-12.6-64.6-12.6zM776 367c-26.8 0-52.8-7.8-75-22.8-22.2-14.8-39.4-35.8-49.8-60.6-10.2-24.8-13-51.8-7.6-78 5.2-26.2 18-50.2 37-69.2s42.8-31.8 69.2-37c26.2-5.2 53.2-2.6 78 7.6s45.8 27.4 60.6 49.8c14.8 22.2 22.8 48.2 22.8 75-0.2 36-14.2 69.8-39.6 95.4-25.8 25.6-59.6 39.6-95.6 39.8zM248 63c-11 0-22 1-33 3.2-32.8 6.6-62.8 22.6-86.6 46.2-23.8 23.8-39.8 53.6-46.2 86.6-6.6 32.8-3.2 66.6 9.6 97.6s34.4 57.2 62.2 75.8c27.8 18.6 60.4 28.4 93.8 28.4v0c45-0.2 87.4-17.8 119.4-49.6 31.8-31.8 49.4-74.2 49.6-119.4 0-33.6-9.8-66-28.4-94-18.6-27.8-44.8-49.4-75.8-62.2-20.6-8.2-42.4-12.6-64.6-12.6zM248 367c-26.8 0-52.8-7.8-75-22.8-22.2-14.8-39.4-35.8-49.8-60.6-10.2-24.8-13-51.8-7.6-78 5.2-26.2 18-50.2 37-69.2s42.8-31.8 69.2-37c26.2-5.2 53.2-2.6 78 7.6s45.8 27.4 60.6 49.8c14.8 22.2 22.8 48.2 22.8 75-0.2 36-14.2 69.8-39.6 95.4-25.8 25.6-59.6 39.6-95.6 39.8zM512 223c-9.4 0-17 7.6-17 17v162.8l-120.4 79c-4.2 2.8-7 7.2-7.6 12-0.6 5 1 9.8 4.2 13.6l160 176c3.6 4 9 6 14.6 5.4 5.4-0.6 10.2-3.8 13-8.6l75.2-135.2h102c9.4 0 17-7.6 17-17s-7.6-17-17-17h-112c-6.2 0-11.8 3.4-14.8 8.8l-68.4 123.2-130.8-143.8 111.4-73c4.8-3.2 7.6-8.4 7.6-14.2v-172c0-9.4-7.6-17-17-17zM640 688c8.4 0 16.8 1.6 24.6 4.8s14.8 8 20.8 14c6 6 10.6 13 13.8 20.8s4.8 16.2 4.8 24.6c0 8.4-1.4 16.8-4.6 24.4-3.2 7.8-7.8 14.8-13.8 20.8s-13 10.6-20.8 13.8c-7.8 3.2-16 4.8-24.4 4.8s-16.8-1.6-24.6-4.8c-7.8-3.2-14.8-7.8-20.8-13.8-12-12-18.8-28.2-18.8-45.2s6.6-33.2 18.6-45.4c12-12 28.2-18.8 45.2-18.8z" />
<glyph unicode="&#xe92b;" glyph-name="bluetooth-outline" d="M511.996 15c-2.19 0-4.398 0.422-6.502 1.294-6.352 2.63-10.494 8.83-10.494 15.706v379.040l-195.936-167.948c-7.13-6.108-17.86-5.284-23.97 1.846-6.11 7.126-5.286 17.86 1.844 23.97l208.94 179.092-208.942 179.092c-7.128 6.11-7.954 16.842-1.844 23.97 6.11 7.126 16.842 7.954 23.97 1.844l195.936-167.946v379.040c0 6.876 4.142 13.074 10.494 15.706 6.352 2.63 13.662 1.178 18.528-3.686l224-224c3.348-3.348 5.148-7.942 4.966-12.672s-2.33-9.172-5.926-12.254l-208.938-179.094 208.942-179.092c3.596-3.082 5.744-7.524 5.926-12.256s-1.62-9.324-4.966-12.674l-224-224c-3.254-3.252-7.604-4.978-12.028-4.978zM529 411.038v-337.998l181.998 181.998-181.998 156zM529 822.958v-337.996l181.998 155.998-181.998 181.998z" />
<glyph unicode="&#xe92c;" glyph-name="boat-outline" d="M818.69 142.954c-0.772 0-1.544 0.028-2.322 0.084-64.982 4.118-115.124 39.272-146.106 68.564-33.162-31.494-87.354-68.602-158.262-68.602-55.604 0-111.846 24.318-158.55 68.516-30.852-29.18-81.010-64.354-146.096-68.476-6.75-0.48-13.352 1.152-19.106 4.724-5.784 3.594-10.19 8.826-12.744 15.134l-0.078 0.198-93.324 239.016c-6.032 17.752-1.886 31.856 2.4 42.158 5.416 13.018 17.634 23.394 33.588 28.548l374.662 149.25c12.582 3.926 25.884 3.93 38.472 0l1.218-0.432 373.95-148.796c15.988-5.47 27.748-15.526 33.136-28.352l0.030-0.068c4.542-10.94 8.572-27.3 2.054-43.216l-93.438-238.406c-2.568-6.292-6.982-11.506-12.764-15.076-5.068-3.138-10.806-4.768-16.72-4.768zM353.45 246.154c8.258 0 16.118-3.114 22.132-8.768 40.71-38.978 89.116-60.386 136.418-60.386 60.42 0 107.3 32.816 135.99 60.346 6.152 5.78 14.014 8.89 22.27 8.89s16.118-3.112 22.136-8.762c26.69-25.524 69.826-56.506 124.856-60.418l92.882 236.992c1.628 3.934 0.896 10.396-1.96 17.294-1.566 3.686-6.442 7.204-13.048 9.414l-0.89 0.326-373.694 148.698c-5.61 1.636-11.496 1.636-17.1 0l-374.56-149.21c-6.346-1.978-11.444-5.652-12.986-9.36-3.14-7.546-3.586-12.102-1.708-17.842l92.284-236.312c55.066 3.918 98.188 34.856 124.742 60.232 6.116 5.752 13.976 8.866 22.236 8.866zM832 13.72c-0.002 2.454-0.662 4.864-1.916 6.976-1.252 2.112-3.050 3.846-5.204 5.024-54.16 29.1-103.54 73.64-125.26 96-3.228 3.384-7.534 5.536-12.176 6.088-4.644 0.552-9.334-0.534-13.264-3.068-100.66-64.84-223.22-64.88-323.9-0.1-3.964 2.56-8.7 3.65-13.384 3.080-4.686-0.57-9.022-2.764-12.256-6.2-21.54-22.56-70.38-66.6-124.86-95.5-2.162-1.094-4.010-2.72-5.37-4.726-1.36-2.004-2.19-4.322-2.41-6.734-0.162-2.056 0.15-4.122 0.912-6.038s1.956-3.63 3.486-5.012 3.358-2.394 5.342-2.958 4.072-0.664 6.1-0.292c41.7 8.36 82 27.36 120.4 47.66 2.464 1.296 5.202 1.984 7.986 2.006 2.784 0.020 5.532-0.626 8.014-1.886 52.004-26.462 109.526-40.258 167.876-40.264 58.348-0.008 115.874 13.776 167.884 40.224 2.51 1.272 5.29 1.926 8.104 1.904 2.816-0.020 5.584-0.714 8.076-2.024 38.2-20 78.44-39.18 120-47.6 1.958-0.364 3.972-0.29 5.896 0.218 1.924 0.51 3.712 1.44 5.234 2.724s2.738 2.89 3.564 4.702c0.824 1.812 1.236 3.786 1.206 5.776l-0.080 0.020zM640 751c-9.388 0-17 7.612-17 17v48c-0.024 8.234-3.262 16.022-9.12 21.878-5.86 5.858-13.646 9.096-21.93 9.122h-159.95c-8.234-0.024-16.022-3.262-21.88-9.12s-9.096-13.646-9.12-21.928v-47.952c0-9.388-7.612-17-17-17s-17 7.612-17 17v48c0.048 17.376 6.826 33.666 19.080 45.92 12.252 12.252 28.542 19.028 45.872 19.080h160.048c17.376-0.050 33.668-6.826 45.922-19.080s19.030-28.544 19.078-45.874v-48.046c0-9.388-7.612-17-17-17zM192 471c-9.388 0-17 7.612-17 17v184c0.088 30.186 11.872 58.516 33.18 79.822 21.304 21.308 49.634 33.092 79.77 33.178h448.050c30.184-0.086 58.516-11.87 79.822-33.18 21.306-21.306 33.090-49.636 33.178-79.77v-178.050c0-9.388-7.612-17-17-17s-17 7.612-17 17v178c-0.060 21.042-8.308 40.868-23.218 55.778-14.914 14.914-34.74 23.162-55.83 23.222h-447.952c-21.042-0.060-40.868-8.306-55.778-23.22-14.914-14.912-23.16-34.738-23.222-55.83v-183.95c0-9.388-7.612-17-17-17zM512 150.1c-9.388 0-17 7.612-17 17v425.7c0 9.388 7.612 17 17 17s17-7.612 17-17v-425.7c0-9.39-7.612-17-17-17z" />
<glyph unicode="&#xe92d;" glyph-name="body-outline" d="M496 751c-53.4 0-97 43.6-97 97s43.6 97 97 97 97-43.6 97-97-43.6-97-97-97zM496 911c-34.8 0-63-28.2-63-63s28.2-63 63-63 63 28.2 63 63-28.2 63-63 63zM385.2-49c-3.8 0-7.6 0.4-11.4 1-8.4 1.4-16.4 4.6-23.6 9.2s-13.4 10.4-18.4 17.6c-5 7-8.4 14.8-10.2 23.2s-2 17-0.6 25.4l60.8 344.4 9.8 59.2c6 36.8 7.4 91.4 0 110.4-5.8 15.2-21.6 17.6-30.6 17.6h-185c-17.4 0-33.6 6.8-46 19-12.2 12.2-19 28.6-19 46s6.8 33.6 19 46c12.2 12.2 28.6 19 46 19h672c17.4 0 33.6-6.8 46-19 12.2-12.2 19-28.6 19-46s-6.8-33.6-19-46c-12.2-12.2-28.6-19-46-19h-184.8c-7.2 0-24.4-1.8-30.6-17.6-7.4-19.2-6-73.6 0-110.6l9.8-59.4 60.8-344.2c3-17-0.8-34.2-10.6-48.4-10-14.2-24.8-23.8-41.8-26.8s-34.2 0.8-48.4 10.6c-14.2 10-23.8 24.8-26.8 41.8l-42 239.8 1.6 0.2-1.8-0.2c-3.4 22.2-12.6 47-18.8 50.6h-4.8c-6.2-3.8-15.2-28-19-50.6v0l-42-239.6c-1.4-8.4-4.4-16.2-9-23.6s-10.4-13.4-17.4-18.4-14.8-8.4-23.2-10.2c-4.6-0.8-9.4-1.4-14-1.4zM176 655c-8.2 0-16-3.2-22-9-5.8-5.8-9-13.6-9-22 0-8.2 3.2-16 9-22 5.8-5.8 13.6-9 22-9h185c29.6 0 52.8-14.6 62.2-39.2 11.6-29.8 7.4-94.4 2-128.2l-9.8-59.6-60.8-344.4c-0.8-4-0.6-8 0.2-12s2.6-7.8 4.8-11c2.4-3.4 5.2-6.2 8.8-8.4 3.4-2.2 7.2-3.6 11.2-4.4s8-0.6 12 0.2 7.6 2.6 11 4.8 6 5.2 8.2 8.8 3.6 7.2 4.2 11.2l42 240c3.2 19.4 15.8 78.6 51.6 78.6h6.2c36.4 0 48.8-59.6 51.8-78.8v0l42-239.8c1.4-8 6-15.2 12.8-19.8 6.8-4.8 15-6.6 23-5 8.2 1.4 15.2 6 19.8 12.8 4.8 6.8 6.6 15 5 23l-60.8 344.4-9.8 59.6c-5.4 33.8-9.6 98.4 2 128.4 9.4 24.2 33.2 39.2 62.2 39.2h185.2c8.2 0 16 3.2 22 9 5.8 5.8 9 13.6 9 22 0 8.2-3.2 16-9 22-5.8 5.8-13.6 9-22 9l-672-0.4z" />
<glyph unicode="&#xe92e;" glyph-name="bonfire-outline" d="M546.8 223.4c-1.6 18.4-17.8 32.8-37.2 32.8-8.4 0-16.4-2.6-23-7.8s-11.2-12.4-13.4-20.4l-36.4-176.8c-1.2-5.2-1.8-10.4-1.8-15.8 0-39.8 33.4-67.6 74.6-67.6s74.6 27.8 74.6 67.6c0 6.4-0.8 12.8-2.6 19l-34.8 169zM822 144.2c-3.8 3.2-7.6 6.2-11.8 8.6l-139 97.2c-13.6 8.4-28 8.2-38.4-2-4.6-4.4-7.4-10.2-8.2-16.4s0.8-12.6 4.2-18l105-138c2.4-3.4 5-6.4 8-9.4 18.2-20.4 58.6-21.4 80.8 0 21.6 22 21.4 60.8-0.6 78zM926.6 288.2h-140.8c-9.2 0-17.8-6.8-17.8-16.4s6-15.8 13.8-18.4l132.8-41c19.2-4.4 45.2 12.8 45.2 34.2 0.2 27.4-15 41.6-33.2 41.6zM256.4 272c0 10-9.2 16.4-19 16.4h-140.8c-17.8 0-32.6-19.2-32.6-40.6s25.2-39.6 44.6-35.2l134.8 41c8.8 2.6 13 8.4 13 18.4zM353.2 250l-139.2-96.8c-4.4-2.4-8.4-5.4-12-8.8-5.2-5-9.6-10.8-12.4-17.6-2.8-6.6-4.4-13.8-4.4-21s1.4-14.4 4.4-21c2.8-6.6 7.2-12.6 12.4-17.6 11-10.4 25.4-16 40.4-16s29.4 5.8 40.4 16c3 2.8 5.6 6 8 9.4l105 137.2c7 11.2 5.8 25-4 34.2-5.2 4.8-12 7.6-19 8s-14-1.6-19.6-6zM378.4 328.2c-3.4 0-6.8 0.4-10.2 1-7 1.4-13.8 4.6-19.4 8.8-34.8 26.4-90.8 86-75.2 187.6 10.8 69.8 66.8 122.4 120.8 173.4 59.4 56 115.6 108.8 118.6 182.2 0.2 4.4 1.2 8.8 3.2 12.8s4.6 7.6 8 10.6 7.2 5.2 11.6 6.6c4.2 1.4 8.8 2 13.2 1.6 98.8-8.6 204-82.6 204-203 0-78.4-37.4-138.6-117.4-189.4-17.2-11-36-21-55.8-31.8-61.8-33.4-125.6-68.2-157.6-133.2-3.2-6.4-7.8-12.2-13.4-16.6s-12.2-7.6-19.2-9.4c-3.6-0.8-7.4-1.2-11.2-1.2zM547.2 879c-4-86.8-67.8-146.8-129.4-204.6-52.2-49-101.6-95.4-110.6-153.8-12.4-80.2 27-128.8 62-155.4 1.8-1.4 3.8-2.2 6-2.8 2.2-0.4 4.4-0.4 6.6 0s4.2 1.4 5.8 2.8c1.8 1.4 3.2 3.2 4 5 36.6 74.8 108.4 113.8 171.8 148 19.2 10.4 37.4 20.2 53.8 30.6 90.2 57.2 101.8 116 101.8 160.8 0 100-88.4 161.6-171.8 169.4zM547.2 880v0 0zM322.4 583c-4 0-8 1.4-11.2 4.2-29.2 25.6-40.2 50.4-40.2 91.4 0 33 17.2 55.2 33.8 76.8 16 20.6 31 40 31.8 70v1c0.6 6.4 3.6 12.2 8.4 16.4s10.8 6.2 17.2 6c65.6-1.4 105.2-23 132.6-72 4.6-8.2 1.6-18.6-6.6-23.2s-18.6-1.6-23.2 6.6c-20.2 36.6-46.4 51.8-95 54.4-3.8-35.4-22-59-38.2-80-14.4-18.6-26.6-34.6-26.6-56 0-34.8 9.2-48.8 28.6-65.8 7-6.2 7.8-17 1.6-24-3.6-3.8-8.4-5.8-13-5.8zM546.2 303.2c-53 0-103.4 20.2-141.8 56.6-6.8 6.4-7 17.2-0.6 24s17.2 7 24 0.6c32-30.6 74.2-47.4 118.4-47.4 0 0 0 0 0.2 0 96.8 0 172.8 74.4 172.8 169.2 0 27.4-8.8 54.2-28.6 87.2-4.8 8-2.2 18.4 5.8 23.4 8 4.8 18.4 2.2 23.4-5.8 14.4-24 33.6-60.8 33.6-104.8 0-55.2-21.6-106.6-60.8-144.6-39-37.6-91-58.4-146.4-58.4v0z" />
<glyph unicode="&#xe92f;" glyph-name="book-outline" d="M512 47v0c-5.2 0-10 2.4-13.2 6.4-32.8 41-72 67.8-127.2 87-66.6 23.2-156.8 34.6-275.6 34.6-28 0-49 22.8-49 52.8v572.2c0 6.4 1.2 12.8 3.6 18.8s6 11.4 10.6 16c4.6 4.6 10 8.2 16 10.6s12.2 3.8 18.8 3.6c133-0.6 231.8-17.2 302-50.8 53.8-25.6 91.4-61.4 114-108.2 22.6 47 60.2 82.6 114 108.2 70.2 33.6 169 50.2 302 50.8h0.2c6.4 0 12.6-1.2 18.6-3.6s11.4-6 16-10.6c4.6-4.6 8.2-10 10.6-16s3.8-12.4 3.6-18.8v-576c0-13-5-25.4-14.4-34.6-9.2-9.2-21.6-14.4-34.6-14.4-268.4 0-352.2-58.4-402.8-121.6-3.2-4-8-6.4-13.2-6.4zM95.8 815c-2 0-3.8-0.4-5.6-1.2s-3.4-1.8-4.8-3.2-2.4-3-3.2-4.8c-0.8-1.8-1.2-3.8-1.2-5.8v-572.2c0-8.6 4-18.8 15-18.8 215.8 0 338.8-34.6 416-118.8 34.2 37.4 75.8 63.8 129.4 82.6 70 24.4 163.8 36.4 286.6 36.4 4 0 7.8 1.6 10.6 4.4s4.4 6.6 4.4 10.6v575.8c0 2-0.4 4-1.2 5.8s-1.8 3.4-3.2 4.8c-1.4 1.4-3 2.4-4.8 3.2s-3.8 1.2-5.6 1.2v0c-245.2-1-368.4-56.4-399.6-179.2-2-7.6-8.6-12.8-16.4-12.8s-14.6 5.2-16.4 12.8c-31.4 122.8-154.6 178.2-400 179.2 0.2 0 0 0 0 0zM512 47c-9.4 0-17 7.6-17 17v576c0 9.4 7.6 17 17 17s17-7.6 17-17v-576c0-9.4-7.6-17-17-17z" />
<glyph unicode="&#xe930;" glyph-name="bookmark-outline" d="M800.004 15c-4.088 0-8.124 1.472-11.298 4.294l-276.706 245.96-276.706-245.96c-5.004-4.45-12.156-5.544-18.258-2.802-6.108 2.742-10.036 8.812-10.036 15.508v736c0 30.184 11.754 58.56 33.098 79.904s49.72 33.096 79.902 33.096h384c30.184 0 58.56-11.754 79.902-33.096 21.344-21.342 33.098-49.72 33.098-79.904v-736c0-6.696-3.93-12.766-10.036-15.508-2.234-1.002-4.604-1.492-6.96-1.492zM512 305c4.038 0 8.074-1.432 11.294-4.294l259.706-230.85v698.144c0 21.102-8.216 40.942-23.138 55.862-14.92 14.92-34.76 23.138-55.862 23.138h-384c-21.1 0-40.94-8.218-55.862-23.138-14.92-14.922-23.138-34.76-23.138-55.862v-698.144l259.706 230.85c3.22 2.862 7.256 4.294 11.294 4.294z" />
<glyph unicode="&#xe931;" glyph-name="bookmarks-outline" d="M896 79c-3.8 0-7.6 1.2-10.6 3.8l-160 128 21.2 26.6 132.4-106v700.6c0 21-8.4 40.8-23.2 55.8s-34.8 23.2-55.8 23.2h-448c-21 0-40.8-8.4-55.8-23.2-15-15-23.2-34.8-23.2-55.8v-32h-34v32c0 30.2 11.8 58.6 33.2 79.8 21.2 21.4 49.6 33.2 79.8 33.2h448c30.2 0 58.6-11.8 79.8-33.2 21.4-21.4 33-49.6 33.2-79.8v-736c0-6.6-3.8-12.4-9.6-15.4-2.4-1-4.8-1.6-7.4-1.6zM736-49c-4 0-7.8 1.4-11 4l-293 246.8-293-246.8c-5-4.2-12.2-5.2-18.2-2.4s-9.8 8.8-9.8 15.4v704c0 30.2 11.8 58.6 33.2 79.8 21.2 21.4 49.6 33.2 79.8 33.2h416c30.2 0 58.4-11.8 79.8-33.2s33-49.6 33.2-79.8v-704c0-6.6-3.8-12.6-9.8-15.4-2.4-1-4.8-1.6-7.2-1.6zM224 751c-21 0-40.8-8.4-55.8-23.2-15-15-23.2-34.8-23.2-55.8v-667.4l276 232.4c6.4 5.4 15.6 5.4 22 0l276-232.4v667.4c0 21-8.4 40.8-23.2 55.8-15 15-34.8 23.2-55.8 23.2h-416z" />
<glyph unicode="&#xe932;" glyph-name="briefcase-outline" d="M864 47h-704c-62.4 0-113 50.6-113 113v448c0 62.4 50.6 113 113 113h704c62.4 0 113-50.6 113-113v-448c0-62.4-50.6-113-113-113zM160 687c-43.6 0-79-35.4-79-79v-448c0-43.6 35.4-79 79-79h704c43.6 0 79 35.4 79 79v448c0 43.6-35.4 79-79 79h-704zM736 687c-9.4 0-17 7.6-17 17v64c0 12.6-4.8 24.4-13.8 33.2-8.8 8.8-20.6 13.8-33.2 13.8h-320c-12.6 0-24.4-4.8-33.2-13.8-8.8-8.8-13.8-20.6-13.8-33.2v-64c0-9.4-7.6-17-17-17s-17 7.6-17 17v64c0 21.6 8.4 42 23.8 57.2 15.2 15.2 35.6 23.8 57.2 23.8h320c21.6 0 42-8.4 57.2-23.8 15.2-15.2 23.8-35.6 23.8-57.2v-64c0-9.4-7.6-17-17-17zM960 463h-896c-9.4 0-17 7.6-17 17s7.6 17 17 17h896c9.4 0 17-7.6 17-17s-7.6-17-17-17zM624 399h-224c-8.8 0-17.2 3.4-23.4 9.6s-9.6 14.6-9.6 23.4v48c0 9.4 7.6 17 17 17s17-7.6 17-17v-47h222v47c0 9.4 7.6 17 17 17s17-7.6 17-17v-48c0-8.8-3.4-17.2-9.6-23.4s-14.6-9.6-23.4-9.6z" />
<glyph unicode="&#xe933;" glyph-name="browsers-outline" d="M832 47h-640c-62.4 0-113 50.6-113 113v576c0 62.4 50.6 113 113 113h640c62.4 0 113-50.6 113-113v-576c0-62.4-50.6-113-113-113zM192 815c-43.6 0-79-35.4-79-79v-576c0-43.6 35.4-79 79-79h640c43.6 0 79 35.4 79 79v576c0 43.6-35.4 79-79 79h-640zM795.6 832h-567.2c-73 0-132.4-60.2-132.4-134.4v-89.6h32c0 32 32 64 64 64h640c32 0 64-32 64-64h32v89.6c0 74.2-59.4 134.4-132.4 134.4z" />
<glyph unicode="&#xe934;" glyph-name="brush-outline" d="M466.6 255c-1.8 0-3.6 0.2-5.2 0.8-6.2 2-10.6 7.4-11.6 13.8-5.2 36-45.8 76.2-85 84.2-6 1.2-10.8 5.6-12.8 11.4s-0.6 12.2 3.4 16.6l422.2 470.2c0.2 0.2 0.4 0.4 0.6 0.6 18.6 18.6 43.2 28.6 69.2 28.6s50.8-10.2 69.2-28.6v0c18.6-18.6 28.6-43.2 28.6-69.2 0-26.2-10.2-50.6-28.6-69.2l-437.8-454c-3.4-3.4-7.8-5.2-12.2-5.2zM398 378.4c32.6-14.8 61.6-43 76.2-74l418.6 433.8c12 12 18.8 28.2 18.8 45.2s-6.6 33.2-18.8 45.2-28.2 18.8-45.2 18.8-32.8-6.6-45-18.4l-404.6-450.6zM240 15c-59.6 0-121.6 31.4-157.6 80-3.8 5.2-4.4 12-1.6 17.8s8.8 9.4 15.2 9.4c19.2 0 55 16.4 55 56.2 0 69.8 56 126.8 125 126.8s125-56.8 125-126.8c0-90.2-72.2-163.4-161-163.4zM128 94.8c30.2-28.4 71.8-45.8 112-45.8 70 0 127 58 127 129.2 0 51.2-40.8 92.8-91 92.8s-91-41.6-91-92.8c0-26.4-10.8-50.4-30.6-67.4-7.8-6.8-16.8-12.2-26.4-16z" />
<glyph unicode="&#xe935;" glyph-name="bug-outline" d="M832 15c-9.388 0-17 7.612-17 17 0 74.454-31.436 114.612-85.732 158.816-7.282 5.928-8.378 16.634-2.452 23.916 5.928 7.28 16.634 8.38 23.916 2.452 58.984-48.020 98.268-97.89 98.268-185.184 0-9.388-7.612-17-17-17zM192 15c-9.388 0-17 7.612-17 17 0 87.296 39.284 137.164 98.268 185.184 7.282 5.926 17.99 4.834 23.916-2.452 5.928-7.282 4.83-17.988-2.452-23.916-54.296-44.202-85.732-84.362-85.732-158.816 0-9.388-7.612-17-17-17zM768.010 526.998c-4.938 0-9.832 2.14-13.194 6.268-5.928 7.282-4.83 17.99 2.452 23.916 48.53 39.514 57.732 93.33 57.732 178.818 0 9.388 7.612 17 17 17s17-7.612 17-17c0-77.98-5.376-152.352-70.268-205.184-3.152-2.568-6.948-3.818-10.722-3.818zM255.99 530.998c-3.774 0-7.57 1.25-10.724 3.818-64.978 52.902-70.266 122.412-70.266 201.184 0 9.388 7.612 17 17 17s17-7.612 17-17c0-84.772 8.928-135.084 57.734-174.816 7.28-5.928 8.378-16.636 2.45-23.916-3.36-4.128-8.258-6.27-13.194-6.27zM928 366.74h-160c-9.388 0-17 7.612-17 17s7.612 17 17 17h160c9.388 0 17-7.612 17-17s-7.612-17-17-17zM256 366.74h-160c-9.388 0-17 7.612-17 17s7.612 17 17 17h160c9.388 0 17-7.612 17-17s-7.612-17-17-17zM512 47c-9.388 0-17 7.612-17 17v512c0 9.388 7.612 17 17 17s17-7.612 17-17v-512c0-9.388-7.612-17-17-17zM512 47c-150.532 0-273 122.466-273 273v192.14c0 66.954 28.564 121.878 82.604 158.834 47.988 32.818 113.826 50.166 190.396 50.166 79.584 0 143.548-15.47 190.118-45.98 54.996-36.032 82.882-90.88 82.882-163.020v-192.14c0-150.534-122.466-273-273-273zM512 687.14c-69.692 0-128.894-15.294-171.204-44.23-44.986-30.766-67.796-74.764-67.796-130.77v-192.14c0-131.786 107.214-239 239-239s239 107.214 239 239v192.14c0 59.948-22.714 105.228-67.516 134.58-40.36 26.444-99.658 40.42-171.484 40.42zM358.866 655.954c-6.754 0-13.142 4.052-15.796 10.708-4.706 11.802-7.414 24.22-8.048 36.906-0.016 0.298-0.022 0.596-0.022 0.894 0.124 47.102 18.534 91.386 51.84 124.694 33.308 33.308 77.592 51.718 124.696 51.842h0.884c47.146-0.124 91.432-18.534 124.74-51.842 33.306-33.312 51.718-77.594 51.84-124.694 0-0.238-0.004-0.476-0.014-0.712-0.466-11.856-2.992-23.43-7.506-34.4-3.572-8.684-13.506-12.826-22.19-9.25-8.684 3.572-12.824 13.508-9.252 22.19 2.948 7.162 4.616 14.714 4.958 22.452-0.194 37.914-15.058 73.55-41.88 100.376-26.908 26.908-62.686 41.782-100.74 41.882h-0.796c-38.010-0.1-73.788-14.974-100.698-41.882-26.8-26.802-41.664-62.404-41.88-100.286 0.488-8.79 2.386-17.392 5.65-25.576 3.478-8.722-0.774-18.61-9.496-22.086-2.066-0.824-4.196-1.216-6.29-1.216z" />
<glyph unicode="&#xe936;" glyph-name="build-outline" d="M191.8 14.6c-14.4 0-28.4 2.6-41.8 8-14.4 5.8-27.4 14.2-38.4 25.2s-19.4 23.8-25.2 38.4c-5.8 14.4-8.4 29.6-8 45.2s4 30.6 10.6 44.6 15.8 26.4 27.4 36.6l333.2 304.2c6.2 5.8 10.8 13.2 13.2 21.6s2.4 17.2 0 25.4c-28.2 100.4-11.2 191 46.6 248.4 67.4 66.8 174.6 87.6 260.8 50.6 2.8-1.2 5.4-3.2 7.4-5.6s3.2-5.4 3.8-8.4c0.6-3.2 0.4-6.4-0.6-9.4-0.8-2.8-2.6-5.6-4.8-7.6l-120.2-120.4c-8.8-8.8-13.6-20.6-13.6-33.2s4.8-24.4 13.8-33.2l53.2-53.2c8.8-8.8 20.6-13.6 33.2-13.6s24.4 4.8 33.2 13.8l120.8 121c2.2 2.2 4.8 3.8 7.6 4.6 3 1 6 1.2 8.8 0.6 3-0.4 5.8-1.6 8.2-3.4s4.4-4.2 5.8-6.8c33.6-69 21.2-190.6-50.8-261.6-57-56.2-146.6-73.2-245.8-46.6-8.2 2.2-16.8 2-25-0.2-8.2-2.4-15.6-7-21.4-13.2l-307.2-333.8c-10.2-11.6-22.6-20.8-36.6-27.4s-29.2-10.2-44.6-10.6c-1.2 0-2.4 0-3.6 0zM680 847c-13 0-26.2-1.2-39.4-3.6-41.4-7.8-78.6-27-107-55.4-69.4-68.8-49.6-173.4-37.8-215 4-14.4 4-29.6 0-43.8-4-14.4-12-27.2-23-37.4l-333.6-304.6c-8.2-7.2-14.6-15.8-19.2-25.8-4.6-9.8-7.2-20.4-7.4-31.2-0.4-10.8 1.6-21.6 5.6-31.6 4-10.2 10-19.2 17.6-26.8s16.8-13.6 26.8-17.6c10.2-4 20.8-5.8 31.6-5.6 10.8 0.4 21.4 2.8 31.2 7.4s18.6 11 25.8 19.2l0.2 0.2 307.8 334c10 10.8 22.8 18.6 36.8 22.8 14.2 4 29 4.2 43.2 0.4 41.4-11 144.8-29.4 213.2 38 54 53.2 69 142.6 51.8 201.8l-104.4-104.4c-15.4-15.2-35.6-23.6-57.2-23.6s-42 8.4-57.2 23.6l-53.4 53.2c-15.2 15.4-23.6 35.6-23.6 57.2s8.4 42 23.6 57.2l103.6 103.6c-17.6 5.2-36.6 7.8-55.6 7.8zM787.8 580v0 0zM757 831.6v0 0zM192 96c17.6 0 32 14.4 32 32s-14.4 32-32 32-32-14.4-32-32 14.4-32 32-32z" />
<glyph unicode="&#xe937;" glyph-name="bulb-outline" d="M608 175c-9.4 0-17 7.6-17 17v48c0 60.8 57.4 115.2 99.4 155 3.4 3.2 6.6 6.2 9.8 9.2 54.2 51.8 82.8 122.2 82.8 203.8 0 73-28 141-78.8 192s-119.2 79-192.2 79c-35.8 0.2-70.8-6.8-103.8-20.4s-62.6-33.4-88-58.8-45-55-58.8-88c-13.6-33-20.6-68-20.4-103.8 0-79.8 30.2-154 82.6-203.6 2.8-2.6 5.6-5.2 8.6-8 42.6-39.8 100.8-94.4 100.8-156.4v-48c0-9.4-7.6-17-17-17s-17 7.6-17 17v48c0 47.2-52 96-90 131.6-3 2.8-5.8 5.4-8.6 8.2-59.4 56-93.4 139.2-93.4 228.4-0.2 40.2 7.6 79.6 23 116.8 15.4 37 37.6 70.4 66 99 28.6 28.4 62 50.6 99.2 66 37 15.2 76 23 116 23 0.2 0 0.6 0 0.8 0 82 0 158.8-31.6 216.2-89 57.2-57.4 88.8-134 88.8-216 0-91-32.2-170-93.2-228.2-3.2-3-6.4-6.2-9.8-9.4-37.4-35.4-88.8-84.2-88.8-130.4v-48c-0.2-9.4-7.8-17-17.2-17zM576-17h-128c-9.4 0-17 7.6-17 17s7.6 17 17 17h128c9.4 0 17-7.6 17-17s-7.6-17-17-17zM608 79h-192c-9.4 0-17 7.6-17 17s7.6 17 17 17h192c9.4 0 17-7.6 17-17s-7.6-17-17-17zM512 175c-9.4 0-17 7.6-17 17v256c0 9.4 7.6 17 17 17s17-7.6 17-17v-256c0-9.4-7.6-17-17-17zM512 431c-16.6 0-36.2 6-58.4 18-15.8 8.4-27.2 17-27.8 17.4-7.6 5.6-9 16.2-3.4 23.8s16.2 9 23.8 3.4c10.8-8 43.6-28.6 65.8-28.6s55.2 20.6 65.8 28.6c7.6 5.6 18.2 4 23.8-3.6s4-18.2-3.4-23.8c-0.4-0.4-12-8.8-27.8-17.4-22.2-11.8-41.8-17.8-58.4-17.8z" />
<glyph unicode="&#xe938;" glyph-name="bus-outline" d="M800 335h-576c-44.6 0-81 36.4-81 81v256c0 44.6 36.4 81 81 81h576c44.6 0 81-36.4 81-81v-256c0-44.6-36.4-81-81-81zM224 719c-26 0-47-21-47-47v-256c0-26 21-47 47-47h576c26 0 47 21 47 47v256c0 26-21 47-47 47h-576zM800 79h-576c-44.6 0-81 36.4-81 81v128c0 44.6 36.4 81 81 81h576c44.6 0 81-36.4 81-81v-128c0-44.6-36.4-81-81-81zM224 335c-26 0-47-21-47-47v-128c0-26 21-47 47-47h576c26 0 47 21 47 47v128c0 26-21 47-47 47h-576zM800 719h-576c-21.6 0-42 8.6-57.2 23.8s-23.8 35.6-23.8 57.2 8.6 42 23.8 57.2 35.6 23.8 57.2 23.8h576c21.6 0 42-8.6 57.2-23.8s23.8-35.6 23.8-57.2-8.6-42-23.8-57.2-35.6-23.8-57.2-23.8v0zM800 847h-576c-12.6 0-24.4-5-33.2-13.8s-13.8-20.6-13.8-33.2c0-12.4 5-24.2 13.8-33.2 8.8-8.8 20.6-13.8 33.2-13.8h576c12.6 0 24.4 5 33.2 13.8s13.8 20.6 13.8 33.2c0 12.4-5 24.2-13.8 33.2-8.8 8.8-20.6 13.8-33.2 13.8zM268 15h-56c-9.8 0-19.2 3.8-26.2 10.8s-10.8 16.2-10.8 26.2v44c0 9.4 7.6 17 17 17h96c9.4 0 17-7.6 17-17v-44c0-9.8-3.8-19.2-10.8-26.2s-16.4-10.8-26.2-10.8zM209 79v-27c0-0.8 0.4-1.6 0.8-2.2 0.6-0.6 1.4-0.8 2.2-0.8h56c0.8 0 1.6 0.4 2.2 0.8s0.8 1.4 0.8 2.2v27h-62zM812 15h-56c-9.8 0-19.2 3.8-26.2 10.8s-10.8 16.2-10.8 26.2v44c0 9.4 7.6 17 17 17h96c9.4 0 17-7.6 17-17v-44c0-9.8-3.8-19.2-10.8-26.2s-16.4-10.8-26.2-10.8zM753 79v-27c0-0.8 0.4-1.6 0.8-2.2 0.6-0.6 1.4-0.8 2.2-0.8h56c0.8 0 1.6 0.4 2.2 0.8 0.6 0.6 0.8 1.4 0.8 2.2v27h-62zM736 175c-27 0-49 22-49 49s22 49 49 49 49-22 49-49-22-49-49-49zM736 239c-8.2 0-15-6.8-15-15s6.8-15 15-15 15 6.8 15 15-6.8 15-15 15zM288 175c-27 0-49 22-49 49s22 49 49 49 49-22 49-49-22-49-49-49zM288 239c-8.2 0-15-6.8-15-15s6.8-15 15-15 15 6.8 15 15-6.8 15-15 15zM512 335c-9.4 0-17 7.6-17 17v384c0 9.4 7.6 17 17 17s17-7.6 17-17v-384c0-9.4-7.6-17-17-17zM160 207c-9.4 0-17 7.6-17 17v576c0 9.4 7.6 17 17 17s17-7.6 17-17v-576c0-9.4-7.6-17-17-17zM864 207c-9.4 0-17 7.6-17 17v576c0 9.4 7.6 17 17 17s17-7.6 17-17v-576c0-9.4-7.6-17-17-17z" />
<glyph unicode="&#xe939;" glyph-name="business-outline" d="M352-17c-9.4 0-17 7.6-17 17v128c0 9.4 7.6 17 17 17s17-7.6 17-17v-128c0-9.4-7.6-17-17-17zM600-17h-504c-9.4 0-17 7.6-17 17v832c0 21.6 8.4 42 23.8 57.2 15.2 15.4 35.6 23.8 57.2 23.8h384c21.6 0 42-8.4 57.2-23.8 15.2-15.2 23.8-35.6 23.8-57.2v-824c0-6.6-2.6-13-7.4-17.6-4.6-4.8-11-7.4-17.6-7.4zM113 17h478v815c0 12.6-4.8 24.4-13.8 33.2-8.8 8.8-20.6 13.8-33.2 13.8h-384c-12.6 0-24.4-4.8-33.2-13.8-8.8-8.8-13.8-20.6-13.8-33.2v-815zM928-17h-320c-9.4 0-17 7.6-17 17v544c0 13 5 25.4 14.4 34.6 9.2 9.2 21.6 14.4 34.6 14.4h224c21.6 0 42-8.4 57.2-23.8 15.2-15.2 23.8-35.6 23.8-57.2v-512c0-9.4-7.6-17-17-17zM625 17h286v495c0 12.6-4.8 24.4-13.8 33.2-8.8 8.8-20.6 13.8-33.2 13.8h-224c-4 0-7.8-1.6-10.6-4.4s-4.4-6.6-4.4-10.6v-527zM196.2 96.2c-6.6-0.8-13.4 0.4-19.2 3.6s-10.6 8-13.6 14-4 12.8-2.8 19.4c1 6.6 4.2 12.6 9 17.4s10.8 7.8 17.4 9c6.6 1 13.4 0 19.4-2.8 6-3 11-7.8 14-13.6 3.2-5.8 4.4-12.6 3.6-19.2-1-7-4.2-13.4-9.2-18.4-5.2-5.2-11.6-8.4-18.6-9.4zM196.2 256.2c-6.6-0.8-13.4 0.4-19.2 3.6s-10.6 8-13.6 14-4 12.8-2.8 19.4c1 6.6 4.2 12.6 9 17.4s10.8 7.8 17.4 9c6.6 1 13.4 0 19.4-2.8 6-3 11-7.8 14-13.6 3.2-5.8 4.4-12.6 3.6-19.2-1-7-4.2-13.4-9.2-18.4-5.2-5.2-11.6-8.4-18.6-9.4zM196.2 416.2c-6.6-0.8-13.4 0.4-19.2 3.6s-10.6 8-13.6 14-4 12.8-2.8 19.4c1 6.6 4.2 12.6 9 17.4s10.8 7.8 17.4 9c6.6 1 13.4 0 19.4-2.8 6-3 11-7.8 14-13.6 3.2-5.8 4.4-12.6 3.6-19.2-1-7-4.2-13.4-9.2-18.4-5.2-5.2-11.6-8.4-18.6-9.4zM196.2 576.2c-6.6-0.8-13.4 0.4-19.2 3.6s-10.6 8-13.6 14-4 12.8-2.8 19.4c1 6.6 4.2 12.6 9 17.4s10.8 7.8 17.4 9c6.6 1 13.4 0 19.4-2.8 6-3 11-7.8 14-13.6 3.2-5.8 4.4-12.6 3.6-19.2-1-7-4.2-13.4-9.2-18.4-5.2-5.2-11.6-8.4-18.6-9.4zM196.2 736.2c-6.6-0.8-13.4 0.4-19.2 3.6s-10.6 8-13.6 14-4 12.8-2.8 19.4c1 6.6 4.2 12.6 9 17.4s10.8 7.8 17.4 9c6.6 1 13.4 0 19.4-2.8 6-3 11-7.8 14-13.6 3.2-5.8 4.4-12.6 3.6-19.2-1-7-4.2-13.4-9.2-18.4-5.2-5.2-11.6-8.4-18.6-9.4zM356.2 256.2c-6.6-0.8-13.4 0.4-19.2 3.6s-10.6 8-13.6 14-4 12.8-2.8 19.4c1 6.6 4.2 12.6 9 17.4s10.8 7.8 17.4 9c6.6 1 13.4 0 19.4-2.8 6-3 11-7.8 14-13.6 3.2-5.8 4.4-12.6 3.6-19.2-1-7-4.2-13.4-9.2-18.4-5.2-5.2-11.6-8.4-18.6-9.4zM356.2 416.2c-6.6-0.8-13.4 0.4-19.2 3.6s-10.6 8-13.6 14-4 12.8-2.8 19.4c1 6.6 4.2 12.6 9 17.4s10.8 7.8 17.4 9c6.6 1 13.4 0 19.4-2.8 6-3 11-7.8 14-13.6 3.2-5.8 4.4-12.6 3.6-19.2-1-7-4.2-13.4-9.2-18.4-5.2-5.2-11.6-8.4-18.6-9.4zM356.2 576.2c-6.6-0.8-13.4 0.4-19.2 3.6s-10.6 8-13.6 14-4 12.8-2.8 19.4c1 6.6 4.2 12.6 9 17.4s10.8 7.8 17.4 9c6.6 1 13.4 0 19.4-2.8 6-3 11-7.8 14-13.6 3.2-5.8 4.4-12.6 3.6-19.2-1-7-4.2-13.4-9.2-18.4-5.2-5.2-11.6-8.4-18.6-9.4zM356.2 736.2c-6.6-0.8-13.4 0.4-19.2 3.6s-10.6 8-13.6 14-4 12.8-2.8 19.4c1 6.6 4.2 12.6 9 17.4s10.8 7.8 17.4 9c6.6 1 13.4 0 19.4-2.8 6-3 11-7.8 14-13.6 3.2-5.8 4.4-12.6 3.6-19.2-1-7-4.2-13.4-9.2-18.4-5.2-5.2-11.6-8.4-18.6-9.4zM516.2 96.2c-6.6-0.8-13.4 0.4-19.2 3.6s-10.6 8-13.6 14-4 12.8-2.8 19.4c1 6.6 4.2 12.6 9 17.4s10.8 7.8 17.4 9c6.6 1 13.4 0 19.4-2.8 6-3 11-7.8 14-13.6 3.2-5.8 4.4-12.6 3.6-19.2-1-7-4.2-13.4-9.2-18.4-5.2-5.2-11.6-8.4-18.6-9.4zM516.2 256.2c-6.6-0.8-13.4 0.4-19.2 3.6s-10.6 8-13.6 14-4 12.8-2.8 19.4c1 6.6 4.2 12.6 9 17.4s10.8 7.8 17.4 9c6.6 1 13.4 0 19.4-2.8 6-3 11-7.8 14-13.6 3.2-5.8 4.4-12.6 3.6-19.2-1-7-4.2-13.4-9.2-18.4-5.2-5.2-11.6-8.4-18.6-9.4zM516.2 416.2c-6.6-0.8-13.4 0.4-19.2 3.6s-10.6 8-13.6 14-4 12.8-2.8 19.4c1 6.6 4.2 12.6 9 17.4s10.8 7.8 17.4 9c6.6 1 13.4 0 19.4-2.8 6-3 11-7.8 14-13.6 3.2-5.8 4.4-12.6 3.6-19.2-1-7-4.2-13.4-9.2-18.4-5.2-5.2-11.6-8.4-18.6-9.4zM534.6 585.4c12.4 12.4 12.4 32.8-0.2 45.2-12.6 12.6-32.8 12.6-45.2 0.2s-12.4-32.8 0.2-45.2c12.6-12.6 32.8-12.8 45.2-0.2zM516.2 736.2c-6.6-0.8-13.4 0.4-19.2 3.6s-10.6 8-13.6 14-4 12.8-2.8 19.4c1 6.6 4.2 12.6 9 17.4s10.8 7.8 17.4 9c6.6 1 13.4 0 19.4-2.8 6-3 11-7.8 14-13.6 3.2-5.8 4.4-12.6 3.6-19.2-1-7-4.2-13.4-9.2-18.4-5.2-5.2-11.6-8.4-18.6-9.4zM800 160c-6.4 0-12.6-1.8-17.8-5.4s-9.4-8.6-11.8-14.4c-2.4-5.8-3-12.2-1.8-18.4s4.2-12 8.8-16.4c4.4-4.4 10.2-7.6 16.4-8.8s12.6-0.6 18.4 1.8c5.8 2.4 10.8 6.6 14.4 11.8s5.4 11.4 5.4 17.8c0 8.4-3.4 16.6-9.4 22.6s-14.2 9.4-22.6 9.4zM800 320c-6.4 0-12.6-1.8-17.8-5.4s-9.4-8.6-11.8-14.4c-2.4-5.8-3-12.2-1.8-18.4s4.2-12 8.8-16.4c4.4-4.4 10.2-7.6 16.4-8.8s12.6-0.6 18.4 1.8c5.8 2.4 10.8 6.6 14.4 11.8s5.4 11.4 5.4 17.8c0 8.4-3.4 16.6-9.4 22.6s-14.2 9.4-22.6 9.4zM800 480c-6.4 0-12.6-1.8-17.8-5.4s-9.4-8.6-11.8-14.4-3-12.2-1.8-18.4 4.2-12 8.8-16.4c4.4-4.4 10.2-7.6 16.4-8.8s12.6-0.6 18.4 1.8c5.8 2.4 10.8 6.6 14.4 11.8s5.4 11.4 5.4 17.8c0 8.4-3.4 16.6-9.4 22.6s-14.2 9.4-22.6 9.4zM672 160c-6.4 0-12.6-1.8-17.8-5.4s-9.4-8.6-11.8-14.4c-2.4-5.8-3-12.2-1.8-18.4s4.2-12 8.8-16.4c4.4-4.4 10.2-7.6 16.4-8.8s12.6-0.6 18.4 1.8c5.8 2.4 10.8 6.6 14.4 11.8s5.4 11.4 5.4 17.8c0 8.4-3.4 16.6-9.4 22.6s-14.2 9.4-22.6 9.4zM672 320c-6.4 0-12.6-1.8-17.8-5.4s-9.4-8.6-11.8-14.4c-2.4-5.8-3-12.2-1.8-18.4s4.2-12 8.8-16.4c4.4-4.4 10.2-7.6 16.4-8.8s12.6-0.6 18.4 1.8c5.8 2.4 10.8 6.6 14.4 11.8s5.4 11.4 5.4 17.8c0 8.4-3.4 16.6-9.4 22.6s-14.2 9.4-22.6 9.4zM672 480c-6.4 0-12.6-1.8-17.8-5.4s-9.4-8.6-11.8-14.4-3-12.2-1.8-18.4 4.2-12 8.8-16.4c4.4-4.4 10.2-7.6 16.4-8.8s12.6-0.6 18.4 1.8c5.8 2.4 10.8 6.6 14.4 11.8s5.4 11.4 5.4 17.8c0 8.4-3.4 16.6-9.4 22.6s-14.2 9.4-22.6 9.4z" />
<glyph unicode="&#xe93a;" glyph-name="cafe-outline" d="M804 591h-68c-9.4 0-17 7.6-17 17s7.6 17 17 17h68c20 0 38.8 7.8 53 22s22 33 22 53v68c0 4-1.6 7.8-4.4 10.6s-6.6 4.4-10.6 4.4h-128c-9.4 0-17 7.6-17 17s7.6 17 17 17h128c13 0 25.4-5 34.6-14.4 9.2-9.2 14.4-21.6 14.4-34.6v-68c0-29.2-11.4-56.4-32-77s-47.8-32-77-32zM576 239h-224c-47.2 0-91.8 18.4-125.2 51.8s-51.8 77.8-51.8 125.2v384c0 9.4 7.6 17 17 17h544c9.4 0 17-7.6 17-17v-384c0-23.4-4.6-46.2-13.4-67.8-9-21.6-21.8-40.8-38.4-57.4s-35.8-29.4-57.4-38.4c-21.6-8.8-44.4-13.4-67.8-13.4zM209 783v-367c0-38.2 14.8-74.2 41.8-101.2s63-41.8 101.2-41.8h224c18.8 0 37.2 3.6 54.8 10.8 17.4 7.2 33 17.6 46.4 31s23.8 29 31 46.4 10.8 35.8 10.8 54.8v367h-510zM800 111h-672c-9.4 0-17 7.6-17 17s7.6 17 17 17h672c9.4 0 17-7.6 17-17s-7.6-17-17-17z" />
<glyph unicode="&#xe93b;" glyph-name="calculator-outline" d="M736 15h-448c-44.664 0-81 36.336-81 81v704c0 44.664 36.336 81 81 81h448c44.664 0 81-36.336 81-81v-704c0-44.664-36.336-81-81-81zM288 847c-25.916 0-47-21.084-47-47v-704c0-25.916 21.084-47 47-47h448c25.916 0 47 21.084 47 47v704c0 25.916-21.084 47-47 47h-448zM704 591h-383.98c-9.388 0-17 7.612-17 17v128c0 9.388 7.612 17 17 17h383.98c9.388 0 17-7.612 17-17v-128c0-9.388-7.612-17-17-17zM337.020 625h349.98v94h-349.98v-94zM336 416c26.51 0 48 21.49 48 48s-21.49 48-48 48-48-21.49-48-48 21.49-48 48-48zM512 416c26.51 0 48 21.49 48 48s-21.49 48-48 48-48-21.49-48-48 21.49-48 48-48zM688 416c26.51 0 48 21.49 48 48s-21.49 48-48 48-48-21.49-48-48 21.49-48 48-48zM336 256c26.51 0 48 21.49 48 48s-21.49 48-48 48-48-21.49-48-48 21.49-48 48-48zM512 256c26.51 0 48 21.49 48 48s-21.49 48-48 48-48-21.49-48-48 21.49-48 48-48zM336 96c26.51 0 48 21.49 48 48s-21.49 48-48 48-48-21.49-48-48 21.49-48 48-48zM512 96c26.51 0 48 21.49 48 48s-21.49 48-48 48-48-21.49-48-48 21.49-48 48-48zM736 304c0 26.51-21.49 48-48 48s-48-21.49-48-48v-160c0-26.51 21.49-48 48-48s48 21.49 48 48v160z" />
<glyph unicode="&#xe93c;" glyph-name="calendar-outline" d="M832 15h-640c-62.4 0-113 50.6-113 113v576c0 62.4 50.6 113 113 113h640c62.4 0 113-50.6 113-113v-576c0-62.4-50.6-113-113-113zM192 783c-43.6 0-79-35.4-79-79v-576c0-43.6 35.4-79 79-79h640c43.6 0 79 35.4 79 79v576c0 43.6-35.4 79-79 79h-640zM795.6 800h-567.2c-73 0-132.4-60.2-132.4-134.4v-121.6h32c0 32 32 64 64 64h640c32 0 64-32 64-64h32v121.6c0 74.2-59.4 134.4-132.4 134.4zM592 448c26.6 0 48 21.4 48 48s-21.4 48-48 48-48-21.4-48-48 21.4-48 48-48zM752 448c26.6 0 48 21.4 48 48s-21.4 48-48 48-48-21.4-48-48 21.4-48 48-48zM592 288c26.6 0 48 21.4 48 48s-21.4 48-48 48-48-21.4-48-48 21.4-48 48-48zM752 288c26.6 0 48 21.4 48 48s-21.4 48-48 48-48-21.4-48-48 21.4-48 48-48zM272 288c26.6 0 48 21.4 48 48s-21.4 48-48 48-48-21.4-48-48 21.4-48 48-48zM432 288c26.6 0 48 21.4 48 48s-21.4 48-48 48-48-21.4-48-48 21.4-48 48-48zM272 128c26.6 0 48 21.4 48 48s-21.4 48-48 48-48-21.4-48-48 21.4-48 48-48zM432 128c26.6 0 48 21.4 48 48s-21.4 48-48 48-48-21.4-48-48 21.4-48 48-48zM592 128c26.6 0 48 21.4 48 48s-21.4 48-48 48-48-21.4-48-48 21.4-48 48-48zM256 783c-9.4 0-17 7.6-17 17v64c0 9.4 7.6 17 17 17s17-7.6 17-17v-64c0-9.4-7.6-17-17-17zM768 783c-9.4 0-17 7.6-17 17v64c0 9.4 7.6 17 17 17s17-7.6 17-17v-64c0-9.4-7.6-17-17-17z" />
<glyph unicode="&#xe93d;" glyph-name="call-outline" d="M781.8 15c-36.6 0-88.6 13.6-168.4 58.2-101.2 56.8-174.6 106-273.2 204.4-94.6 94.4-140.6 155.4-205.2 272.8-70.6 128-59.4 193.2-46.6 220.6 13.2 28.4 32.4 48.6 68.2 72.4 17.2 11.4 35.6 21 54.4 29 2.4 1 4.4 1.8 6.2 2.6 9 4 19.2 8.6 32.4 3.6 10.2-3.8 20.2-12.6 36.4-28.6 34.6-34 83.8-113 101.2-150.6 11.4-24.6 19-41 19-57.2 0-18.4-9.8-33.2-22.6-50.6-2.6-3.4-5-6.8-7.6-10-16-21-22.8-31-19.2-48.4 5.6-25.8 42.2-90.4 96.4-144.4 32.8-32.6 100.8-85.2 143-94.2 17.8-3.8 28 3.2 49.6 19.6 3 2.2 5.8 4.6 9 6.8 19.6 14.6 33.8 24.2 51.6 24.2v0c15.8 0 30.4-7.4 57-20.6 35.2-17.8 115.4-65.6 150.4-100.8v0c16-16.2 24.8-26.2 28.8-36.4 5-13.2 0.4-23.4-3.6-32.4-0.8-1.8-1.8-3.8-2.6-6-8-19-17.8-37.2-29-54.4-23.8-35.6-44.2-54.8-72.6-68-13.6-6.2-30.2-11.6-53-11.6zM238 847c-1.4-0.4-4.4-1.6-6.8-2.8-2-1-4.4-2-7-3-17-7.2-33.4-16-48.8-26-30.8-20.4-45.6-35.8-56.2-58.4-25.2-53.6 28.6-158.8 45.6-189.8 62.8-114 107.4-173.4 199.4-265.2 95.8-95.6 167.4-143.8 265.8-199 130.6-73.2 174-53 190.4-45.4 23 10.6 38.2 25.4 58.6 56 10.2 15.4 19 31.8 26 48.8 1 2.4 2 4.8 3 6.8 1 2.4 2.4 5.4 2.8 6.8-1.2 3.4-8.4 11.4-21 24.2-28.2 28.4-101.4 74-141.6 94.4-21 10.6-33.8 17-41.6 17v0c-6 0-13.4-4-31.4-17.4-3-2.2-5.8-4.4-8.6-6.6-22.4-17-43.4-33.2-77.2-26-34.6 7.4-102.4 46.2-159.8 103.4-56.6 56.4-98.2 126.4-105.6 161.4-7.2 33.4 9.4 55.2 25.4 76 2.4 3 4.8 6.2 7.2 9.6 12.2 16.6 16 24 16 30.4 0 8.4-5.8 21-15.8 42.8-16.6 35.6-63.6 110.4-94.4 140.6-13 13-21.2 20-24.4 21.4z" />
<glyph unicode="&#xe93e;" glyph-name="camera-outline" d="M864 111h-704c-21.6 0-42 8.4-57.2 23.8-15.2 15.2-23.8 35.6-23.8 57.2v384c0 21.6 8.4 42 23.8 57.2 15.2 15.2 35.6 23.8 57.2 23.8h120c10.2 0 20 5.4 29.2 15.8l52.6 83c0.4 0.6 1 1.4 1.4 2 15 17.6 35.2 27.2 56.8 27.2h184c21.6 0 41.8-9.6 56.8-27.2 0.6-0.6 1-1.2 1.4-2l52.6-83c8.8-10 20.4-15.8 31.2-15.8h118c21.6 0 42-8.4 57.2-23.8 15.2-15.2 23.8-35.6 23.8-57.2v-384c0-21.6-8.4-42-23.8-57.2-15.2-15.4-35.6-23.8-57.2-23.8zM160 623c-12.6 0-24.4-4.8-33.2-13.8-8.8-8.8-13.8-20.6-13.8-33.2v-384c0-12.6 4.8-24.4 13.8-33.2 8.8-8.8 20.6-13.8 33.2-13.8h704c12.6 0 24.4 4.8 33.2 13.8 8.8 8.8 13.8 20.6 13.8 33.2v384c0 12.6-4.8 24.4-13.8 33.2-8.8 8.8-20.6 13.8-33.2 13.8h-118c-21.2 0-42.2 10.4-57.8 28.6-0.6 0.6-1 1.2-1.4 2l-52.6 83c-8.4 9.4-19 14.4-30.2 14.4h-184c-11.2 0-21.8-5.2-30.2-14.4l-52.6-83c-0.4-0.6-1-1.4-1.4-2-16-18.6-35.4-28.6-55.8-28.6h-120zM512 239c-97.6 0-177 79.4-177 177s79.4 177 177 177 177-79.4 177-177-79.4-177-177-177zM512 559c-78.8 0-143-64.2-143-143s64.2-143 143-143 143 64.2 143 143-64.2 143-143 143zM248 627c-9.4 0-17 7.6-17 17v27h-14v-27c0-9.4-7.6-17-17-17s-17 7.6-17 17v44c0 9.4 7.6 17 17 17h48c9.4 0 17-7.6 17-17v-44c0-9.4-7.6-17-17-17z" />
<glyph unicode="&#xe93f;" glyph-name="camera-reverse-outline" d="M864 111h-704c-21.6 0-42 8.4-57.2 23.8-15.2 15.2-23.8 35.6-23.8 57.2v384c0 21.6 8.4 42 23.8 57.2 15.2 15.2 35.6 23.8 57.2 23.8h120c10.2 0 20 5.4 29.2 15.8l52.6 83c0.4 0.6 1 1.4 1.4 2 15 17.6 35.2 27.2 56.8 27.2h184c21.6 0 41.8-9.6 56.8-27.2 0.6-0.6 1-1.2 1.4-2l52.6-83c8.8-10 20.4-15.8 31.2-15.8h118c21.6 0 42-8.4 57.2-23.8 15.2-15.2 23.8-35.6 23.8-57.2v-384c0-21.6-8.4-42-23.8-57.2-15.2-15.4-35.6-23.8-57.2-23.8zM160 623c-12.6 0-24.4-4.8-33.2-13.8-8.8-8.8-13.8-20.6-13.8-33.2v-384c0-12.6 4.8-24.4 13.8-33.2 8.8-8.8 20.6-13.8 33.2-13.8h704c12.6 0 24.4 4.8 33.2 13.8 8.8 8.8 13.8 20.6 13.8 33.2v384c0 12.6-4.8 24.4-13.8 33.2-8.8 8.8-20.6 13.8-33.2 13.8h-118c-21.2 0-42.2 10.4-57.8 28.6-0.6 0.6-1 1.2-1.4 2l-52.6 83c-8.4 9.4-19 14.4-30.2 14.4h-184c-11.2 0-21.8-5.2-30.2-14.4l-52.6-83c-0.4-0.6-1-1.4-1.4-2-16-18.6-35.4-28.6-55.8-28.6h-120zM248 627c-9.4 0-17 7.6-17 17v27h-14v-27c0-9.4-7.6-17-17-17s-17 7.6-17 17v44c0 9.4 7.6 17 17 17h48c9.4 0 17-7.6 17-17v-44c0-9.4-7.6-17-17-17zM512 239c-26 0-51.8 5.8-75.6 17-30.4 14.4-55.8 37-73.8 65.2-18 28.4-27.4 61-27.6 94.6v26.6c0 9.4 7.6 17 17 17s17-7.6 17-17v-26.6c0-27.2 7.8-53.6 22.2-76.4 14.6-23 35.2-41.2 59.6-52.8 24.6-11.6 51.6-16 78.6-12.6s52.2 14.2 73.2 31.4c7.2 6 18 4.8 24-2.4s4.8-18-2.4-24c-26-21.2-57.2-34.8-90.6-38.8-7.2-0.8-14.4-1.2-21.6-1.2zM671.6 372.6c-3 0-5.8 0.8-8.4 2.2l-262 149.8c-4.8 2.8-8 7.8-8.4 13.2-0.4 5.6 1.8 11 6 14.6 26 21.4 57.2 35 90.6 39.2s67-1.2 97.6-15.4c30.4-14.4 56-36.8 74-65.2s27.6-61.2 27.6-94.8v-26.6c0-6-3.2-11.6-8.4-14.8-2.8-1.4-5.8-2.2-8.6-2.2zM441.4 540.8l213.2-121.8c-0.6 26.2-8.2 51.8-22.2 73.8-14.6 23-35.2 41.2-59.8 52.8s-51.8 15.8-78.8 12.4c-18.6-2.4-36.4-8.2-52.4-17.2zM392 399c-4.4 0-8.8 1.6-12 5l-28 28-28-28c-6.6-6.6-17.4-6.6-24 0s-6.6 17.4 0 24l40 40c6.6 6.6 17.4 6.6 24 0l40-40c6.6-6.6 6.6-17.4 0-24-3.2-3.4-7.6-5-12-5zM672 359c-4.4 0-8.8 1.6-12 5l-40 40c-6.6 6.6-6.6 17.4 0 24s17.4 6.6 24 0l28-28 28 28c6.6 6.6 17.4 6.6 24 0s6.6-17.4 0-24l-40-40c-3.2-3.4-7.6-5-12-5z" />
<glyph unicode="&#xe940;" glyph-name="car-outline" d="M864 495c-6.6 0-12.8 3.8-15.6 10.4l-75.6 176.2c-9.6 22.4-35 37.4-63 37.4h-395.6c-28.2 0-53.4-15-63-37.4l-75.6-176.2c-3.6-8.6-13.6-12.6-22.4-9-8.6 3.6-12.6 13.6-9 22.4l75.6 176.2c15.2 35.2 52.2 58 94.2 58h395.6c42.2 0 79.2-22.8 94.2-58l75.6-176.2c3.6-8.6-0.2-18.6-9-22.4-1.8-1-4.2-1.4-6.4-1.4zM864 207h-704c-9.4 0-17 7.6-17 17v288c0 9.4 7.6 17 17 17h704c9.4 0 17-7.6 17-17v-288c0-9.4-7.6-17-17-17zM177 241h670v254h-670v-254zM224 143h-64c-9.4 0-17 7.6-17 17v64c0 9.4 7.6 17 17 17s17-7.6 17-17v-47h30v47c0 9.4 7.6 17 17 17s17-7.6 17-17v-64c0-9.4-7.6-17-17-17zM864 143h-64c-9.4 0-17 7.6-17 17v64c0 9.4 7.6 17 17 17s17-7.6 17-17v-47h30v47c0 9.4 7.6 17 17 17s17-7.6 17-17v-64c0-9.4-7.6-17-17-17zM288 335c-27 0-49 22-49 49s22 49 49 49 49-22 49-49-22-49-49-49zM288 399c-8.2 0-15-6.8-15-15s6.8-15 15-15 15 6.8 15 15-6.8 15-15 15zM736 335c-27 0-49 22-49 49s22 49 49 49 49-22 49-49-22-49-49-49zM736 399c-8.2 0-15-6.8-15-15s6.8-15 15-15 15 6.8 15 15-6.8 15-15 15z" />
<glyph unicode="&#xe941;" glyph-name="car-sport-outline" d="M940 175h-170c-15.2 0-25.8 2.8-38 5.8-13 3.4-29.2 7.4-58.6 10.2-61.6 5.8-125.6 8-161.6 8-36.8 0-98-2-159.6-8-29.4-2.8-45.4-6.8-58.4-10.2-12.2-3.2-22.8-5.8-38.2-5.8h-172c-7.4 0-13.8 4.8-16.2 11.6-0.6 1.6-12.4 38.2-18.8 99.6-3 29.4-2.4 75.4 1.4 120 4.6 50.8 11.4 82.6 20.6 94.8 8.4 11 22.8 18.8 39.4 28 19.2 10.4 41 22.2 52.2 39.2 5.6 8.6 11.6 21.2 17.8 34.4 18.4 39 41.6 87.8 89.4 111.6 57.8 28.8 166.6 39 242.4 39 75.4 0 184.2-10.2 242.2-39 47.8-23.8 70.8-72.4 89.4-111.6 6.2-13.2 12.2-25.6 17.8-34.2 11-16.8 32.8-28.6 52.2-39 16.6-9 31-16.8 39.4-27.8v0c9-12.2 16-44 20.4-94.8 4-44.6 4.6-90.6 1.4-120-6.4-61.4-18.2-98-18.8-99.6-1.8-7.4-8.4-12.2-15.8-12.2zM512 233c38.6 0 102-2.2 164.8-8 32-3 50.4-7.8 63.8-11.2 11.2-2.8 18.6-4.8 29.6-4.8h157.2c3.8 14.8 10 42.8 14 80.8 6.6 63.8-5.6 176-15.4 190.8-4 5.2-16.4 11.8-28.4 18.4-21.6 11.8-48.6 26.4-64.4 50.4-7 10.6-13.4 24.2-20.2 38.4-16.2 34.4-36.6 77.2-73.8 95.6-56.4 28-169.4 35.6-227.2 35.6-77.6 0-178-11-227.2-35.4-37.2-18.6-57.4-61.4-73.8-95.6-6.8-14.4-13.2-27.8-20.2-38.4-15.8-24-42.6-38.6-64.2-50.2-12-6.6-24.6-13.4-28.4-18.6-9.8-14.6-22-127-15.4-190.8 4-38 10.2-66 14-80.8h159.2c11 0 18.4 2 29.8 4.8 13.4 3.4 31.6 8.2 63.6 11.2 62.6 5.6 125 7.8 162.6 7.8zM912 143h-112c-9.4 0-17 7.6-17 17v32c0 9.4 7.6 17 17 17h112c9.4 0 17-7.6 17-17v-32c0-9.4-7.6-17-17-17zM224 143h-112c-9.4 0-17 7.6-17 17v32c0 9.4 7.6 17 17 17h112c9.4 0 17-7.6 17-17v-32c0-9.4-7.6-17-17-17zM729 341.6c-11.8 13.6-50.4 25-101.4 32.8s-69.6 9.6-115.2 9.6-66.4-3.2-115.2-9.6c-48.8-6.4-85.6-17.6-101.4-32.8-23.6-22.8 11-48.6 38.2-51.6 26.4-3 79-2 178.6-2s152.2-1 178.6 2c27.2 3.2 59.2 27.2 37.8 51.6zM863.2 473.8c-0.2 1.6-0.8 3-2 4.2s-2.6 1.8-4.2 1.8c-23.6 0.8-47.6-0.8-90.2-13.4-21.8-6.4-42-16.6-60.2-30.2-4.6-3.6-3-13.2 2.8-14.2 35-4.2 70.4-6.2 105.6-6.2 21.2 0 43 6 47 24.8 2.2 11.2 2.6 22.4 1.2 33.2zM160.8 473.8c0.2 1.6 0.8 3 2 4.2s2.6 1.8 4.2 1.8c23.6 0.8 47.6-0.8 90.2-13.4 21.8-6.4 42-16.6 60.2-30.2 4.6-3.6 3-13.2-2.8-14.2-35-4.2-70.4-6.2-105.6-6.2-21.2 0-43 6-47.2 24.8-2 11.2-2.4 22.4-1 33.2zM896 559h-32c-9.4 0-17 7.6-17 17s7.6 17 17 17h32c9.4 0 17-7.6 17-17s-7.6-17-17-17zM160 559h-32c-9.4 0-17 7.6-17 17s7.6 17 17 17h32c9.4 0 17-7.6 17-17s-7.6-17-17-17zM868 521c-1.4 0-2.8 0.2-4.2 0.6-0.8 0.2-94.8 23.4-351.8 23.4s-350.8-23.2-351.8-23.4c-9-2.4-18.4 3.2-20.6 12.2-2.4 9 3.2 18.4 12.2 20.6 3.8 1 97.8 24.6 360.2 24.6s356.4-23.6 360.2-24.6c9-2.4 14.6-11.6 12.2-20.8-2-7.6-8.8-12.6-16.4-12.6z" />
<glyph unicode="&#xe942;" glyph-name="card-outline" d="M816 111h-608c-71.2 0-129 57.8-129 129v416c0 71.2 57.8 129 129 129h608c71.2 0 129-57.8 129-129v-416c0-71.2-57.8-129-129-129zM208 751c-52.4 0-95-42.6-95-95v-416c0-52.4 42.6-95 95-95h608c52.4 0 95 42.6 95 95v416c0 52.4-42.6 95-95 95h-608zM96 593h832v-34h-832v34zM352 303h-96c-9.4 0-17 7.6-17 17v40c0 9.4 7.6 17 17 17h96c9.4 0 17-7.6 17-17v-40c0-9.4-7.6-17-17-17zM273 337h62v6h-62v-6z" />
<glyph unicode="&#xe943;" glyph-name="caret-back-circle-outline" d="M547.6 620.8l-178.2-148.2c-3.6-3-6.6-6.8-8.6-11s-3-8.8-3-13.6c0-4.6 1-9.4 3-13.6s4.8-8 8.6-11l178.2-148.2c4.6-3.8 10.4-6.4 16.4-7.2s12.2 0.2 17.6 2.8c5.6 2.6 10.2 6.6 13.4 11.8s5 11 5 17.2v296.4c0 6-1.8 12-5 17.2s-8 9.2-13.4 11.8c-5.6 2.6-11.6 3.6-17.6 2.8-6.2-0.8-11.8-3.2-16.4-7.2zM512 47c-221.2 0-401 179.8-401 401s179.8 401 401 401 401-179.8 401-401-179.8-401-401-401zM512 815c-202.4 0-367-164.6-367-367s164.6-367 367-367 367 164.6 367 367-164.6 367-367 367z" />
<glyph unicode="&#xe944;" glyph-name="caret-back-outline" d="M643.8 764l-326.2-279.6c-5.2-4.6-9.4-10-12.4-16.4-2.8-6.2-4.4-13.2-4.4-20s1.4-13.8 4.4-20c2.8-6.2 7.2-11.8 12.4-16.4l326.2-279.6c31.2-26.6 79.2-4.6 79.2 36.4v559.2c0.2 41-48 63.2-79.2 36.4z" />
<glyph unicode="&#xe945;" glyph-name="caret-down-circle-outline" d="M684.8 483.6l-148.2-178.2c-3-3.6-6.8-6.6-11-8.6s-8.8-3-13.6-3c-4.6 0-9.4 1-13.6 3s-8 4.8-11 8.6l-148.2 178.2c-3.8 4.6-6.4 10.4-7.2 16.4s0.2 12.2 2.8 17.6c2.6 5.6 6.6 10.2 11.8 13.4s11 5 17.2 5h296.6c6 0 12-1.8 17.2-5s9.2-8 11.8-13.4c2.6-5.6 3.6-11.6 2.8-17.6-1-6.2-3.4-11.8-7.4-16.4zM512 47c-221.2 0-401 179.8-401 401s179.8 401 401 401 401-179.8 401-401-179.8-401-401-401zM512 815c-202.4 0-367-164.6-367-367s164.6-367 367-367 367 164.6 367 367-164.6 367-367 367z" />
<glyph unicode="&#xe946;" glyph-name="caret-down-outline" d="M196 579.8l279.6-326.2c4.6-5.2 10-9.4 16.4-12.4 6.2-2.8 13.2-4.4 20-4.4 7 0 13.8 1.4 20 4.4 6.2 2.8 11.8 7.2 16.4 12.4l279.6 326.2c26.6 31.2 4.6 79.2-36.4 79.2h-559.2c-41 0.2-63.2-48-36.4-79.2z" />
<glyph unicode="&#xe947;" glyph-name="caret-forward-circle-outline" d="M476.4 275.2l178.2 148.2c3.6 3 6.6 6.8 8.6 11s3 8.8 3 13.6c0 4.6-1 9.4-3 13.6s-4.8 8-8.6 11l-178.2 148.2c-4.6 3.8-10.4 6.4-16.4 7.2s-12.2-0.2-17.6-2.8c-5.6-2.6-10.2-6.6-13.4-11.8s-5-11-5-17.2v-296.6c0-6 1.8-12 5-17.2s8-9.2 13.4-11.8c5.6-2.6 11.6-3.6 17.6-2.8 6.2 1 11.8 3.4 16.4 7.4zM512 47c-221.2 0-401 179.8-401 401s179.8 401 401 401 401-179.8 401-401-179.8-401-401-401zM512 815c-202.4 0-367-164.6-367-367s164.6-367 367-367 367 164.6 367 367-164.6 367-367 367z" />
<glyph unicode="&#xe948;" glyph-name="caret-forward-outline" d="M380.12 132l326.24 279.56c5.256 4.506 9.474 10.096 12.366 16.386 2.894 6.29 4.39 13.13 4.39 20.054s-1.496 13.764-4.39 20.054c-2.892 6.29-7.11 11.88-12.366 16.386l-326.24 279.56c-31.14 26.68-79.24 4.56-79.24-36.44v-559.2c0-41 48.1-63.12 79.24-36.36z" />
<glyph unicode="&#xe949;" glyph-name="caret-up-circle-outline" d="M684.8 412.4l-148.2 178.2c-3 3.6-6.8 6.6-11 8.6s-8.8 3-13.6 3c-4.6 0-9.4-1-13.6-3s-8-4.8-11-8.6l-148.2-178.2c-3.8-4.6-6.4-10.4-7.2-16.4s0.2-12.2 2.8-17.6c2.6-5.6 6.6-10.2 11.8-13.4s11-5 17.2-5h296.6c6 0 12 1.8 17.2 5s9.2 8 11.8 13.4c2.6 5.6 3.6 11.6 2.8 17.6-1 6.2-3.4 11.8-7.4 16.4zM512 47c-221.2 0-401 179.8-401 401s179.8 401 401 401 401-179.8 401-401-179.8-401-401-401zM512 815c-202.4 0-367-164.6-367-367s164.6-367 367-367 367 164.6 367 367-164.6 367-367 367z" />
<glyph unicode="&#xe94a;" glyph-name="caret-up-outline" d="M828 316.2l-279.6 326.2c-4.6 5.2-10 9.4-16.4 12.4-6.2 2.8-13.2 4.4-20 4.4-7 0-13.8-1.4-20-4.4-6.2-2.8-11.8-7.2-16.4-12.4l-279.6-326.2c-26.6-31.2-4.6-79.2 36.4-79.2h559.2c41-0.2 63.2 48 36.4 79.2z" />
<glyph unicode="&#xe94b;" glyph-name="cart-outline" d="M352 79c-27.018 0-49 21.98-49 49s21.982 49 49 49 49-21.98 49-49-21.982-49-49-49zM352 143c-8.272 0-15-6.728-15-15s6.728-15 15-15 15 6.728 15 15-6.728 15-15 15zM800 79c-27.020 0-49 21.98-49 49s21.98 49 49 49 49-21.98 49-49-21.98-49-49-49zM800 143c-8.272 0-15-6.728-15-15s6.728-15 15-15 15 6.728 15 15-6.728 15-15 15zM832 239h-512c-8.25 0-15.308 5.922-16.742 14.044l-93.52 529.956h-113.738c-9.388 0-17 7.612-17 17s7.612 17 17 17h128c8.25 0 15.308-5.922 16.742-14.046l93.52-529.954h497.738c9.388 0 17-7.612 17-17s-7.612-17-17-17zM818.888 367c-0.006 0-0.012 0-0.018 0h-498.87c-9.388 0-17 7.612-17 17s7.612 17 17 17h498.072l57.2 286h-619.272c-9.388 0-17 7.612-17 17s7.612 17 17 17h620.48c0.008 0 0.018 0 0.028 0 4.834 0 9.708-1.094 14.090-3.166 4.376-2.066 8.324-5.146 11.404-8.9 3.080-3.758 5.328-8.228 6.504-12.936 1.178-4.708 1.296-9.714 0.344-14.474l-57.6-287.998c-1.496-7.464-5.56-14.23-11.448-19.052-5.876-4.82-13.304-7.474-20.914-7.474z" />
<glyph unicode="&#xe94c;" glyph-name="cash-outline" d="M928 271h-832c-27 0-49 22-49 49v448c0 27 22 49 49 49h832c27 0 49-22 49-49v-448c0-27-22-49-49-49zM96 783c-8.2 0-15-6.8-15-15v-448c0-8.2 6.8-15 15-15h832c8.2 0 15 6.8 15 15v448c0 8.2-6.8 15-15 15h-832zM896 175h-768c-9.4 0-17 7.6-17 17s7.6 17 17 17h768c9.4 0 17-7.6 17-17s-7.6-17-17-17zM832 79h-640c-9.4 0-17 7.6-17 17s7.6 17 17 17h640c9.4 0 17-7.6 17-17s-7.6-17-17-17zM512 367c-97.6 0-177 79.4-177 177s79.4 177 177 177 177-79.4 177-177-79.4-177-177-177zM512 687c-78.8 0-143-64.2-143-143s64.2-143 143-143 143 64.2 143 143-64.2 143-143 143zM960 623c-47.2 0-91.8 18.4-125.2 51.8s-51.8 77.8-51.8 125.2c0 9.4 7.6 17 17 17s17-7.6 17-17c0-38.2 14.8-74.2 41.8-101.2s63-41.8 101.2-41.8c9.4 0 17-7.6 17-17s-7.6-17-17-17zM64 623c-9.4 0-17 7.6-17 17s7.6 17 17 17c18.8 0 37.2 3.6 54.8 10.8 17.4 7.2 33 17.6 46.4 31s23.8 29 31 46.4 10.8 35.8 10.8 54.8c0 9.4 7.6 17 17 17s17-7.6 17-17c0-23.4-4.6-46.2-13.4-67.8-9-21.6-21.8-40.8-38.4-57.4s-35.8-29.4-57.4-38.4c-21.6-8.8-44.4-13.4-67.8-13.4zM800 271c-9.4 0-17 7.6-17 17 0 47.2 18.4 91.8 51.8 125.2s77.8 51.8 125.2 51.8c9.4 0 17-7.6 17-17s-7.6-17-17-17c-38.2 0-74.2-14.8-101.2-41.8s-41.8-63-41.8-101.2c0-9.4-7.6-17-17-17zM224 271c-9.4 0-17 7.6-17 17 0 18.8-3.6 37.2-10.8 54.8-7.2 17.4-17.6 33-31 46.4s-29 23.8-46.4 31-35.8 10.8-54.8 10.8c-9.4 0-17 7.6-17 17s7.6 17 17 17c23.4 0 46.2-4.6 67.8-13.4s41-21.8 57.4-38.4c16.6-16.6 29.4-35.8 38.4-57.4s13.4-44.4 13.4-67.8c0-9.4-7.6-17-17-17z" />
<glyph unicode="&#xe94d;" glyph-name="cellular-outline" d="M944 111h-96c-18.2 0-33 14.8-33 33v608c0 18.2 14.8 33 33 33h96c18.2 0 33-14.8 33-33v-608c0-18.2-14.8-33-33-33zM849 145h94v606h-94v-606zM688 111h-96c-18.2 0-33 14.8-33 33v448c0 18.2 14.8 33 33 33h96c18.2 0 33-14.8 33-33v-448c0-18.2-14.8-33-33-33zM593 145h94v446h-94v-446zM432 111h-96c-18.2 0-33 14.8-33 33v320c0 18.2 14.8 33 33 33h96c18.2 0 33-14.8 33-33v-320c0-18.2-14.8-33-33-33zM337 145h94v318h-94v-318zM176 111h-96c-18.2 0-33 14.8-33 33v192c0 18.2 14.8 33 33 33h96c18.2 0 33-14.8 33-33v-192c0-18.2-14.8-33-33-33zM81 145h94v190h-94v-190z" />
<glyph unicode="&#xe94e;" glyph-name="chatbox-ellipses-outline" d="M288 47c-2.4 0-5 0.6-7.2 1.6-6 2.8-9.8 8.8-9.8 15.4v143h-63c-34.4 0-66.8 13.6-91.2 37.8-24.4 24.4-37.8 56.6-37.8 91v384.2c0 34.4 13.6 66.8 37.8 91.2 24.4 24.2 56.8 37.8 91.2 37.8h608c34.4 0 66.8-13.6 91-37.8 24.4-24.4 37.8-56.6 37.8-91v-384c0-34.4-13.6-66.8-37.8-91.2s-56.6-37.8-91-37.8h-330l-187.2-156c-3-2.8-6.8-4.2-10.8-4.2zM288 241c9.4 0 17-7.6 17-17v-123.6l159.6 133c6 5 13.4 7.6 21.2 7.6h330.2c25.4 0 49.2 10 67 28 18 18 27.8 41.8 28 67.2v383.8c0 25.4-10 49.2-28 67-18 18-41.8 27.8-67 28h-608c-25.4 0-49.2-10-67-28-18-18-27.8-41.8-28-67.2v-384c0-25.4 10-49.2 28-67 18-18 41.8-27.8 67.2-28h79.8v0.2zM320 464c35.4 0 64 28.6 64 64s-28.6 64-64 64-64-28.6-64-64 28.6-64 64-64zM512 464c35.4 0 64 28.6 64 64s-28.6 64-64 64-64-28.6-64-64 28.6-64 64-64zM704 464c35.4 0 64 28.6 64 64s-28.6 64-64 64-64-28.6-64-64 28.6-64 64-64z" />
<glyph unicode="&#xe94f;" glyph-name="chatbox-outline" d="M288 47c-2.4 0-5 0.6-7.2 1.6-6 2.8-9.8 8.8-9.8 15.4v143h-63c-34.4 0-66.8 13.6-91.2 37.8-24.4 24.4-37.8 56.6-37.8 91v384.2c0 34.4 13.6 66.8 37.8 91.2 24.4 24.2 56.8 37.8 91.2 37.8h608c34.4 0 66.8-13.6 91-37.8 24.4-24.4 37.8-56.6 37.8-91v-384c0-34.4-13.6-66.8-37.8-91.2s-56.6-37.8-91-37.8h-330l-187.2-156c-3-2.8-6.8-4.2-10.8-4.2zM288 241c9.4 0 17-7.6 17-17v-123.6l159.6 133c6 5 13.4 7.6 21.2 7.6h330.2c25.4 0 49.2 10 67 28 18 18 27.8 41.8 28 67.2v383.8c0 25.4-10 49.2-28 67-18 18-41.8 27.8-67 28h-608c-25.4 0-49.2-10-67-28-18-18-27.8-41.8-28-67.2v-384c0-25.4 10-49.2 28-67 18-18 41.8-27.8 67.2-28h79.8v0.2z" />
<glyph unicode="&#xe950;" glyph-name="chatbubble-ellipses-outline" d="M154.542 14.998l-0.914 0.002c-4.81 0.016-9.498 0.966-13.932 2.832-4.446 1.874-8.408 4.558-11.782 7.99-3.376 3.438-5.996 7.442-7.788 11.904-1.794 4.468-2.67 9.176-2.604 13.988l0.044 1.028c0.25 3.368 0.856 6.718 1.798 9.964l39.176 141.708c0.18 1.284-0.566 6.938-6.15 16.742-1.226 2.056-2.57 4.064-3.998 5.966l-0.588 0.838c-45.014 68.274-68.806 147.584-68.804 229.362-0.356 111.172 43.158 216.28 122.53 295.906 82.132 82.394 192.264 127.772 310.11 127.772 100.116 0 197.784-34.226 275.016-96.374 76.244-61.354 129.202-146.872 149.116-240.802 6.104-28.45 9.212-57.666 9.228-86.794 0-113.894-43.744-220.858-123.176-301.2-80.122-81.040-187.73-125.67-303.004-125.67-40.698 0-92.58 10.386-117.522 17.37-31.064 8.694-61.064 20.246-62.326 20.734-5.154 1.978-10.598 2.99-16.15 2.996-6.088 0.108-11.954-1.158-17.514-3.514l-0.858-0.336-135.24-48.802c-4.394-1.838-9.020-3.020-13.76-3.516l-0.908-0.094zM151.542 50.902c0.026-0.174 0.072-0.344 0.138-0.512 0.11-0.274 0.272-0.52 0.482-0.732 0.204-0.208 0.446-0.372 0.72-0.486 0.080-0.034 0.162-0.062 0.246-0.086 1.076 0.204 2.124 0.524 3.13 0.958l0.974 0.384 135.272 48.814c9.59 3.992 19.716 6.016 30.102 6.016 0.1 0 0.2 0 0.3 0 9.674-0.010 19.208-1.784 28.288-5.268 1.236-0.476 29.758-11.46 59.27-19.72 27.904-7.81 75.364-16.112 108.36-16.112 106.12 0 205.14 41.044 278.826 115.574 73.098 73.936 113.354 172.412 113.354 277.286-0.016 26.732-2.87 53.554-8.48 79.712-18.302 86.332-67.018 164.946-137.18 221.404-71.216 57.308-161.314 88.866-253.704 88.866-108.744 0-210.324-41.828-286.030-117.776-72.944-73.18-112.938-169.724-112.61-271.85-0.002-74.998 21.754-147.684 62.926-210.292 2.060-2.782 4-5.7 5.772-8.686l0.138-0.238c9.512-16.636 12.714-30.986 9.518-42.65l-0.010-0.038-39.318-142.208c-0.224-0.77-0.388-1.564-0.484-2.36zM174.96 200v0zM158.564 204.492v0zM320 384c35.346 0 64 28.654 64 64s-28.654 64-64 64-64-28.654-64-64 28.654-64 64-64zM512 384c35.346 0 64 28.654 64 64s-28.654 64-64 64-64-28.654-64-64 28.654-64 64-64zM704 384c35.346 0 64 28.654 64 64s-28.654 64-64 64-64-28.654-64-64 28.654-64 64-64z" />
<glyph unicode="&#xe951;" glyph-name="chatbubble-outline" d="M154.6 15h-1c-4.8 0-9.6 1-14 2.8s-8.4 4.6-11.8 8c-3.4 3.4-6 7.4-7.8 12-1.8 4.4-2.6 9.2-2.6 14v1c0.2 3.4 0.8 6.8 1.8 10l39.2 141.6c0.2 1.2-0.6 7-6.2 16.8-1.2 2-2.6 4-4 6l-0.6 0.8c-45 68.2-68.8 147.6-68.8 229.4-0.4 111.2 43.2 216.2 122.6 296 82.2 82.4 192.2 127.8 310.2 127.8 100.2 0 197.8-34.2 275-96.4 76.2-61.4 129.2-146.8 149.2-240.8 6-28.4 9.2-57.6 9.2-86.8 0-113.8-43.8-220.8-123.2-301.2-80.2-81-187.8-125.6-303-125.6-40.6 0-92.6 10.4-117.6 17.4-31 8.6-61 20.2-62.4 20.8-5.2 2-10.6 3-16.2 3-6.2 0-12-1.2-17.6-3.6l-0.8-0.4-135.2-48.8c-4.4-1.8-9-3-13.8-3.6l-0.6-0.2zM151.6 50.8c0-0.2 0-0.4 0.2-0.6s0.2-0.6 0.4-0.8 0.4-0.4 0.8-0.4h0.2c1 0.2 2.2 0.6 3.2 1l1 0.4 135.2 48.8c9.6 4 20 6 30.4 6 9.6 0 19.2-1.8 28.2-5.2 1.2-0.4 29.8-11.4 59.2-19.8 28-7.8 75.4-16.2 108.4-16.2 106.2 0 205.2 41 278.8 115.6 73 74 113.4 172.4 113.4 277.2 0 26.8-2.8 53.6-8.4 79.8-18.4 86.4-67 165-137.2 221.4-71.2 57.4-161.4 89-253.8 89-108.8 0-210.4-41.8-286-117.8-73-73.2-113-169.6-112.6-271.8 0-75 21.8-147.6 63-210.4 2-2.8 4-5.6 5.8-8.6l0.2-0.2c9.6-16.6 12.8-31 9.6-42.6v0l-39.6-142.4c-0.2-0.8-0.4-1.6-0.4-2.4zM175 200v0 0z" />
<glyph unicode="&#xe952;" glyph-name="chatbubbles-outline" d="M879.8 163.8h-1.8c-4.2 0.4-8.2 1.4-12.2 3l-113.8 40.6c-4.2 1.8-8.8 2.6-13.4 2.6 0 0 0 0-0.2 0-4.4 0-8.6-0.8-12.6-2.4-2.6-1-26.8-10.2-52.4-17-28.2-7.8-69-16-98.8-16-97 0-187.6 37.2-255.2 104.8-67 67-103.8 155.8-103.8 250.4 0 24.2 2.6 48.4 7.8 72 16.8 77.8 61.4 148.6 125.8 199.4 65 51.4 147.2 79.8 231.4 79.8 100.4 0 194-38.4 263.4-108 65.4-65.8 101.4-152 101-243.2 0-68-20.2-133.6-58-190l-0.6-0.8c-1-1.4-2.2-3-3-4.6-3.8-6.4-4.6-10.4-4.8-11.6l32.6-116c0.8-2.8 1.4-5.8 1.6-8.8v-1.4c0-8.8-3.4-17.2-9.6-23.4-6.4-6-14.6-9.4-23.4-9.4zM764.6 238.8l113.4-40.2-32.6 115.6c-3 10.4-0.2 23 8.2 37.6l0.2 0.2c1.6 2.6 3.2 5 5 7.4 34 50.6 52 109.8 52 170.8 0.2 82-32.2 159.8-91.2 219-63 63.2-148 98-239.2 98-76.6 0-151.4-25.8-210.4-72.4-58-46-98.4-109.8-113.6-180-4.6-21.2-7-43-7-64.8 0-85.4 33.4-165.8 93.8-226.2 61.2-61.2 143.2-94.8 231.2-94.8 26.6 0 63.8 7.6 90 14.8 24.4 6.6 48.2 15.8 49.2 16.2 8 3 16.2 4.4 24.6 4.6 9.4-0.6 18-2.2 26.4-5.8zM143.6 15c-7.4 0-14.8 2.6-20.6 7.2l-0.4 0.2c-4.6 3.8-8 8.8-10 14.4s-2.4 11.6-1.2 17.4c3.6 18.4 20 104.4 23.4 121.4-0.6 1-1.6 2.8-3.4 5.8-31.8 47.2-49.8 102.4-52.2 159.6-2.4 57 11 113.6 38.8 163.4 4.6 8.2 15 11.2 23.2 6.6s11.2-15 6.6-23.2c-24.8-44.4-36.6-94.8-34.6-145.4s18.2-100 46.6-142c6-9 11.2-18.8 9-29.2-0.8-3.4-14.2-73.6-23.4-121.2l110.8 43.4c11.8 4.6 24.8 4.6 36.6-0.4 38.2-14.8 78.2-22.8 115.2-22.8 0.2 0 0.2 0 0.4 0 53 0 105.4 14 151.2 40.6 8.2 4.8 18.6 2 23.2-6.2 4.8-8.2 2-18.6-6.2-23.2-51-29.6-109.2-45.2-168.2-45.2-0.2 0-0.2 0-0.4 0-41.4 0-85.6 8.6-127.8 25.2l-0.6 0.2c-3.6 1.6-7.4 1.6-11 0.2l-112.2-44c-3.8-1.6-8-2.4-12.2-2.4-0.2-0.4-0.4-0.4-0.6-0.4zM145 47.8c0 0 0 0 0 0v0zM135.6 178.4c0-0.2 0-0.2 0 0 0-0.2 0-0.2 0 0z" />
<glyph unicode="&#xe953;" glyph-name="checkbox-outline" d="M435.2 271c-4.816 0-9.41 2.042-12.636 5.626l-115.2 128c-6.282 6.978-5.714 17.728 1.264 24.010s17.728 5.71 24.008-1.264l102.122-113.468 256.224 305.030c6.040 7.186 16.762 8.124 23.952 2.082 7.19-6.038 8.124-16.762 2.084-23.952l-268.8-320c-3.164-3.768-7.806-5.98-12.726-6.064-0.098 0-0.196 0-0.292 0zM800 47h-576c-62.308 0-113 50.692-113 113v576c0 62.308 50.692 113 113 113h576c62.308 0 113-50.692 113-113v-576c0-62.308-50.692-113-113-113zM224 815c-43.56 0-79-35.44-79-79v-576c0-43.56 35.44-79 79-79h576c43.56 0 79 35.44 79 79v576c0 43.56-35.44 79-79 79h-576z" />
<glyph unicode="&#xe954;" glyph-name="checkmark-circle-outline" d="M512 47c-221.112 0-401 179.888-401 401s179.888 401 401 401 401-179.888 401-401-179.888-401-401-401zM512 815c-202.364 0-367-164.636-367-367 0-202.366 164.636-367 367-367 202.366 0 367 164.634 367 367 0 202.364-164.634 367-367 367zM435.2 271c-4.816 0-9.41 2.042-12.636 5.626l-115.2 128c-6.282 6.978-5.714 17.728 1.264 24.010s17.728 5.71 24.008-1.264l102.122-113.468 256.224 305.030c6.040 7.186 16.762 8.124 23.952 2.082 7.19-6.038 8.124-16.762 2.084-23.952l-268.8-320c-3.164-3.768-7.806-5.98-12.726-6.064-0.098 0-0.196 0-0.292 0z" />
<glyph unicode="&#xe955;" glyph-name="checkmark-done-circle-outline" d="M512 47c-221.2 0-401 179.8-401 401s179.8 401 401 401 401-179.8 401-401-179.8-401-401-401zM512 815c-202.4 0-367-164.6-367-367s164.6-367 367-367 367 164.6 367 367-164.6 367-367 367zM512.2 303c-4.6 0-8.8 1.8-12 5l-95.8 96c-6.6 6.6-6.6 17.4 0 24s17.4 6.6 24 0l83-83.2 211.8 242.4c6.2 7 17 7.8 24 1.6s7.8-17 1.6-24l-223.8-256c-3-3.6-7.6-5.6-12.2-5.8-0.2 0-0.4 0-0.6 0zM384 303c-4.4 0-8.8 1.6-12 5l-96 96c-6.6 6.6-6.6 17.4 0 24s17.4 6.6 24 0l96-96c6.6-6.6 6.6-17.4 0-24-3.4-3.4-7.8-5-12-5zM508.4 441c-4 0-8 1.4-11.2 4.2-7 6.2-7.8 17-1.6 24l103 118c6.2 7 17 7.8 24 1.6s7.8-17 1.6-24l-103-118c-3.4-3.8-8.2-5.8-12.8-5.8z" />
<glyph unicode="&#xe956;" glyph-name="checkmark-done-outline" d="M480 175c-4.6 0-8.8 1.8-12 5l-192 192c-6.6 6.6-6.6 17.4 0 24s17.4 6.6 24 0l179.2-179.2 436 498.4c6.2 7 17 7.8 24 1.6s7.8-17 1.6-24l-448-512c-3-3.6-7.6-5.6-12.2-5.8-0.2 0-0.4 0-0.6 0zM288 175c-4.4 0-8.8 1.6-12 5l-192 192c-6.6 6.6-6.6 17.4 0 24s17.4 6.6 24 0l192-192c6.6-6.6 6.6-17.4 0-24-3.2-3.4-7.6-5-12-5zM464 375c-4 0-8 1.4-11.2 4.2-7 6.2-7.8 17-1.6 24l272 312c6.2 7 17 7.8 24 1.6s7.8-17 1.6-24l-272-312c-3.4-3.8-8-5.8-12.8-5.8z" />
<glyph unicode="&#xe957;" glyph-name="checkmark-outline" d="M384 175c-4.5 0-8.826 1.786-12.020 4.978l-192 192c-6.64 6.638-6.64 17.404 0 24.042 6.638 6.636 17.402 6.636 24.042 0l179.152-179.152 436.036 498.326c6.18 7.066 16.918 7.784 23.988 1.6 7.064-6.182 7.782-16.922 1.598-23.988l-448-512c-3.098-3.542-7.526-5.638-12.228-5.794-0.192-0.008-0.38-0.012-0.568-0.012z" />
<glyph unicode="&#xe958;" glyph-name="chevron-back-circle-outline" d="M512 47c-221.2 0-401 179.8-401 401s179.8 401 401 401 401-179.8 401-401-179.8-401-401-401zM512 815c-202.4 0-367-164.6-367-367s164.6-367 367-367 367 164.6 367 367-164.6 367-367 367zM592 239c-4.4 0-8.8 1.6-12 5l-192 192c-6.6 6.6-6.6 17.4 0 24l192 192c6.6 6.6 17.4 6.6 24 0s6.6-17.4 0-24l-180-180 180-180c6.6-6.6 6.6-17.4 0-24-3.2-3.4-7.6-5-12-5z" />
<glyph unicode="&#xe959;" glyph-name="chevron-back-outline" d="M656 143c-4.4 0-8.8 1.6-12 5l-288 288c-6.6 6.6-6.6 17.4 0 24l288 288c6.6 6.6 17.4 6.6 24 0s6.6-17.4 0-24l-276-276 276-276c6.6-6.6 6.6-17.4 0-24-3.2-3.4-7.6-5-12-5z" />
<glyph unicode="&#xe95a;" glyph-name="chevron-down-circle-outline" d="M512 47c-221.2 0-401 179.8-401 401s179.8 401 401 401 401-179.8 401-401-179.8-401-401-401zM512 815c-202.4 0-367-164.6-367-367s164.6-367 367-367 367 164.6 367 367-164.6 367-367 367zM512 319c-4.4 0-8.8 1.6-12 5l-192 192c-6.6 6.6-6.6 17.4 0 24s17.4 6.6 24 0l180-180 180 180c6.6 6.6 17.4 6.6 24 0s6.6-17.4 0-24l-192-192c-3.2-3.4-7.6-5-12-5z" />
<glyph unicode="&#xe95b;" glyph-name="chevron-down-outline" d="M512 287c-4.4 0-8.8 1.6-12 5l-288 288c-6.6 6.6-6.6 17.4 0 24s17.4 6.6 24 0l276-276 276 276c6.6 6.6 17.4 6.6 24 0s6.6-17.4 0-24l-288-288c-3.2-3.4-7.6-5-12-5z" />
<glyph unicode="&#xe95c;" glyph-name="chevron-forward-circle-outline" d="M512 47c-221.2 0-401 179.8-401 401s179.8 401 401 401 401-179.8 401-401-179.8-401-401-401zM512 815c-202.4 0-367-164.6-367-367s164.6-367 367-367 367 164.6 367 367-164.6 367-367 367zM432 239c-4.4 0-8.8 1.6-12 5-6.6 6.6-6.6 17.4 0 24l180 180-180 180c-6.6 6.6-6.6 17.4 0 24s17.4 6.6 24 0l192-192c6.6-6.6 6.6-17.4 0-24l-192-192c-3.2-3.4-7.6-5-12-5z" />
<glyph unicode="&#xe95d;" glyph-name="chevron-forward-outline" d="M368 143c-4.4 0-8.8 1.6-12 5-6.6 6.6-6.6 17.4 0 24l276 276-276 276c-6.6 6.6-6.6 17.4 0 24s17.4 6.6 24 0l288-288c6.6-6.6 6.6-17.4 0-24l-288-288c-3.2-3.4-7.6-5-12-5z" />
<glyph unicode="&#xe95e;" glyph-name="chevron-up-circle-outline" d="M704 351c-4.4 0-8.8 1.6-12 5l-180 180-180-180c-6.6-6.6-17.4-6.6-24 0s-6.6 17.4 0 24l192 192c6.6 6.6 17.4 6.6 24 0l192-192c6.6-6.6 6.6-17.4 0-24-3.2-3.4-7.6-5-12-5zM512 47c-221.2 0-401 179.8-401 401s179.8 401 401 401 401-179.8 401-401-179.8-401-401-401zM512 815c-202.4 0-367-164.6-367-367s164.6-367 367-367 367 164.6 367 367-164.6 367-367 367z" />
<glyph unicode="&#xe95f;" glyph-name="chevron-up-outline" d="M800 287c-4.4 0-8.8 1.6-12 5l-276 276-276-276c-6.6-6.6-17.4-6.6-24 0s-6.6 17.4 0 24l288 288c6.6 6.6 17.4 6.6 24 0l288-288c6.6-6.6 6.6-17.4 0-24-3.2-3.4-7.6-5-12-5z" />
<glyph unicode="&#xe960;" glyph-name="clipboard-outline" d="M736-17h-448c-30.2 0-58.6 11.8-80 33s-33 49.8-33 80v640c0 30.2 11.8 58.6 33 80s49.8 33 80 33h64v-34h-64c-21.2 0-41-8.2-55.8-23.2-15-15-23.2-34.8-23.2-55.8v-640c0-21 8.2-41 23.2-55.8 15-15 34.8-23.2 55.8-23.2h448c21.2 0 41 8.2 55.8 23.2 15 15 23.2 34.8 23.2 55.8v640c0 21.2-8.2 41-23.2 55.8-15 15-34.8 23.2-55.8 23.2h-64v34h64c30.2 0 58.6-11.8 80-33 21.4-21.4 33-49.8 33-80v-640c0-30.2-11.8-58.6-33-80-21.4-21.2-49.8-33-80-33zM619.8 751h-215.6c-38.2 0-69.2 31-69.2 69.2v23.6c0 38.2 31 69.2 69.2 69.2h215.4c38.2 0 69.2-31 69.2-69.2v-23.4c0.2-38.4-30.8-69.4-69-69.4zM404.2 879c-19.4 0-35.2-15.8-35.2-35.2v-23.4c0-19.4 15.8-35.2 35.2-35.2h215.4c19.4 0 35.2 15.8 35.2 35.2v23.4c0 19.4-15.8 35.2-35.2 35.2h-215.4z" />
<glyph unicode="&#xe961;" glyph-name="close-circle-outline" d="M512 47c-221.112 0-401 179.888-401 401s179.888 401 401 401 401-179.888 401-401-179.888-401-401-401zM512 815c-202.364 0-367-164.636-367-367 0-202.366 164.636-367 367-367 202.366 0 367 164.634 367 367 0 202.364-164.634 367-367 367zM640 303c-4.352 0-8.702 1.66-12.022 4.978l-256 256c-6.64 6.638-6.64 17.402 0 24.042 6.638 6.638 17.402 6.638 24.042 0l256-256c6.638-6.638 6.638-17.404 0-24.042-3.318-3.318-7.668-4.978-12.020-4.978zM384 303c-4.35 0-8.702 1.66-12.020 4.978-6.64 6.638-6.64 17.404 0 24.042l256 256c6.64 6.638 17.402 6.638 24.042 0 6.638-6.638 6.638-17.402 0-24.042l-256-256c-3.32-3.318-7.672-4.978-12.022-4.978z" />
<glyph unicode="&#xe962;" glyph-name="close-outline" d="M736 207c-4.4 0-8.8 1.6-12 5l-448 448c-6.6 6.6-6.6 17.4 0 24s17.4 6.6 24 0l448-448c6.6-6.6 6.6-17.4 0-24-3.2-3.4-7.6-5-12-5zM288 207c-4.4 0-8.8 1.6-12 5-6.6 6.6-6.6 17.4 0 24l448 448c6.6 6.6 17.4 6.6 24 0s6.6-17.4 0-24l-448-448c-3.2-3.4-7.6-5-12-5z" />
</font>
</defs>
</svg>
