<?xml version="1.0" standalone="no"?>
<!DOCTYPE svg PUBLIC "-//W3C//DTD SVG 1.1//EN" "http://www.w3.org/Graphics/SVG/1.1/DTD/svg11.dtd" >
<svg xmlns="http://www.w3.org/2000/svg">
<metadata>Generated by IcoMoon</metadata>
<defs>
<font id="vscode" horiz-adv-x="1024">
<font-face units-per-em="1024" ascent="960" descent="-64" />
<missing-glyph horiz-adv-x="1024" />
<glyph unicode="&#x20;" horiz-adv-x="512" d="" />
<glyph unicode="&#xe900;" glyph-name="account" d="M1024 448.512c0 282.368-229.376 511.488-512 511.488s-512-229.12-512-511.488c0-155.52 70.656-295.68 181.248-389.76 1.024-1.024 2.048-1.024 2.048-2.048 9.216-7.168 18.432-14.336 28.672-21.504 5.12-3.072 9.216-7.104 14.336-11.2 80.314-55.103 179.618-88 286.606-88 0.040 0 0.080 0 0.12 0h-0.006c0.034 0 0.074 0 0.114 0 106.988 0 206.292 32.897 288.349 89.128l-1.743-1.128c5.12 3.072 9.216 7.104 14.336 10.24 9.216 7.104 19.456 14.272 28.672 21.44 1.024 1.024 2.048 1.024 2.048 2.048 108.544 95.168 179.2 235.264 179.2 390.784zM512 0.448c-96.256 0-184.32 30.72-257.024 81.856 1.024 8.192 3.072 16.32 5.12 24.512 6.728 24.125 15.814 45.19 27.304 64.669l-0.68-1.245c11.264 19.456 24.576 36.864 40.96 52.224 15.36 15.36 33.792 29.632 52.224 40.896 19.456 11.264 39.936 19.456 62.464 25.6 20.731 5.812 44.537 9.152 69.123 9.152 0.179 0 0.358 0 0.536-0.001h-0.028c0.564 0.004 1.23 0.007 1.897 0.007 72.044 0 137.444-28.444 185.583-74.715l-0.088 0.084c23.552-23.552 41.984-51.2 55.296-82.88 7.168-18.432 12.288-37.888 15.36-58.304-71.866-51.068-161.365-81.698-258.009-81.856h-0.039zM355.328 474.048c-8.418 18.784-13.322 40.711-13.322 63.784 0 0.616 0.003 1.231 0.010 1.845l-0.001-0.094c0 22.464 4.096 44.992 13.312 65.472s21.504 38.848 36.864 54.208c15.36 15.36 33.792 27.584 54.272 36.8s43.008 13.312 65.536 13.312c23.552 0 45.056-4.096 65.536-13.312s38.912-21.504 54.272-36.8c15.36-15.36 27.648-33.792 36.864-54.208 9.216-20.48 13.312-43.008 13.312-65.472 0-23.552-4.096-45.056-13.312-65.472-9.395-21.015-21.792-38.986-36.885-54.293l0.021 0.021c-15.288-15.047-33.259-27.424-53.122-36.339l-1.15-0.461c-19.525-8.249-42.227-13.042-66.048-13.042s-46.523 4.794-67.193 13.469l1.145-0.426c-21.013 9.376-38.984 21.753-54.296 36.823l0.024-0.023c-15.102 15.079-27.235 33.127-35.449 53.194l-0.391 1.078zM830.464 134.464c0 2.048-1.024 3.072-1.024 5.12-10.947 34.299-25.912 64.134-44.747 91.063l0.715-1.079c-19.527 28.15-42.565 52.145-68.854 72.074l-0.778 0.566c-19.269 14.638-41.15 27.651-64.446 38.067l-2.114 0.845c11.154 7.417 20.874 15.49 29.663 24.479l0.033 0.033c14.931 14.746 28.123 31.194 39.277 49.045l0.659 1.131c21.232 34.354 33.814 76.002 33.814 120.59 0 1.12-0.008 2.239-0.024 3.355l0.002-0.169c0.007 0.692 0.011 1.51 0.011 2.329 0 33.121-6.782 64.659-19.032 93.299l0.589-1.548c-12.995 29.83-30.6 55.289-52.208 76.72l-0.016 0.016c-21.541 21.178-47.010 38.442-75.202 50.587l-1.598 0.613c-27.092 11.623-58.622 18.381-91.73 18.381-0.871 0-1.741-0.005-2.61-0.014l0.132 0.001c-0.692 0.007-1.51 0.011-2.328 0.011-33.165 0-64.747-6.781-93.433-19.033l1.554 0.59c-29.953-12.696-55.478-30.322-76.755-52.114l-0.045-0.046c-21.179-21.52-38.443-46.968-50.588-75.14l-0.612-1.596c-11.662-27.092-18.443-58.63-18.443-91.751 0-0.819 0.004-1.637 0.012-2.454l-0.001 0.125c0-22.528 3.072-44.032 9.216-64.448 6.144-21.504 14.336-40.96 25.6-59.328 10.24-18.432 24.576-34.816 39.936-50.176 9.216-9.216 19.456-17.344 30.72-24.512-25.395-11.52-47.272-24.865-67.288-40.483l0.728 0.547c-26.624-20.48-50.176-44.992-69.632-71.616-18.345-25.816-33.333-55.68-43.417-87.718l-0.615-2.266c-1.024-2.048-1.024-4.096-1.024-5.12-80.896 81.856-131.072 192.32-131.072 315.072 0 246.528 201.728 448.064 448.512 448.064s448.512-201.536 448.512-448.064c-0.144-122.613-49.805-233.598-130.057-314.057l0.009 0.009z" />
<glyph unicode="&#xe901;" glyph-name="activate-breakpoints" d="M960 608c0.071-2.355 0.111-5.126 0.111-7.907 0-146.473-111.982-266.791-255.004-280.011l-1.107-0.083c-0.572 23.161-5.219 45.075-13.248 65.278l0.448-1.278c114.549 12.126 203.238 107.466 204.798 223.842l0.002 0.158c-0.465 123.607-100.775 223.629-224.447 223.629-116.911 0-212.945-89.387-223.488-203.546l-0.066-0.883c-18.874 6.937-40.7 11.523-63.415 12.774l-0.585 0.026c20.037 143.632 140.812 253.37 287.73 255.996l0.27 0.004c0.362 0.002 0.79 0.003 1.219 0.003 158.386 0 286.784-128.398 286.784-286.784 0-0.428-0.001-0.856-0.003-1.284v0.066zM352 576c-159.076 0-288.032-128.956-288.032-288.032s128.956-288.032 288.032-288.032v0c159.058 0 288 128.942 288 288s-128.942 288-288 288v0z" />
<glyph unicode="&#xe902;" glyph-name="add" d="M896 512v-64h-384v-384h-64v384h-384v64h384v384h64v-384h384z" />
<glyph unicode="&#xe903;" glyph-name="archive" d="M928 896h-832l-32-32v-192l32-32h32v-544l32-32h704l32 32v544h32l32 32v192l-32 32zM864 704h-736v128h768v-128h-32zM192 128v512h640v-512h-640zM704 512h-384v-64h384v64z" />
<glyph unicode="&#xe904;" glyph-name="arrow-both" d="M192 384l137.344-137.344-45.248-45.312-192 192v45.312l192 192 45.248-45.312-137.344-137.344h640l-137.344 137.344 45.248 45.312 192-192v-45.312l-192-192-45.248 45.248 137.344 137.408h-640z" />
<glyph unicode="&#xe905;" glyph-name="arrow-circle-down" d="M343.61 442.833l136.923-136.925v368.14h64v-363.474l132.26 132.26 45.254-45.254-189.219-189.22h-45.254l-189.219 189.22 45.255 45.254zM896 448c0 212.077-171.923 384-384 384s-384-171.923-384-384c0-212.077 171.923-384 384-384s384 171.923 384 384zM832 448c0-176.73-143.27-320-320-320s-320 143.27-320 320c0 176.731 143.269 320 320 320s320-143.269 320-320z" />
<glyph unicode="&#xe906;" glyph-name="arrow-circle-left" d="M506.833 279.61l-136.923 136.924h368.138v64h-363.475l132.259 132.26-45.254 45.255-189.219-189.219v-45.254l189.219-189.219 45.254 45.254zM512 832c212.077 0 384-171.923 384-384s-171.923-384-384-384c-212.077 0-384 171.923-384 384s171.923 384 384 384zM512 768c-176.731 0-320-143.269-320-320s143.269-320 320-320c176.73 0 320 143.27 320 320s-143.27 320-320 320z" />
<glyph unicode="&#xe907;" glyph-name="arrow-circle-right" d="M517.167 616.39l136.925-136.923h-368.14v-64h363.474l-132.26-132.26 45.255-45.254 189.22 189.219v45.254l-189.22 189.219-45.254-45.255zM512 64c-212.077 0-384 171.923-384 384s171.923 384 384 384c212.077 0 384-171.923 384-384s-171.923-384-384-384zM512 128c176.73 0 320 143.27 320 320s-143.27 320-320 320c-176.731 0-320-143.269-320-320s143.269-320 320-320z" />
<glyph unicode="&#xe908;" glyph-name="arrow-circle-up" d="M343.61 453.167l136.923 136.923v-368.138h64v363.475l132.26-132.259 45.254 45.254-189.219 189.219h-45.254l-189.219-189.219 45.255-45.254zM896 448c0-212.077-171.923-384-384-384s-384 171.923-384 384c0 212.077 171.923 384 384 384s384-171.923 384-384zM832 448c0 176.731-143.27 320-320 320s-320-143.269-320-320c0-176.73 143.269-320 320-320s320 143.27 320 320z" />
<glyph unicode="&#xe909;" glyph-name="arrow-down" d="M201.408 384l320-320h45.248l320 320-45.248 45.248-265.408-265.344v668.096h-64v-668.16l-265.344 265.472-45.248-45.312z" />
<glyph unicode="&#xe90a;" glyph-name="arrow-left" d="M448 762.048l-320-320v-45.248l320-320 45.248 45.248-265.344 265.408h668.096v64h-668.16l265.472 265.344-45.312 45.248z" />
<glyph unicode="&#xe90b;" glyph-name="arrow-right" d="M576 71.232l320 320v45.248l-320 320-45.248-45.248 265.344-265.408h-668.096v-64h668.16l-265.472-265.344 45.248-45.248z" />
<glyph unicode="&#xe90c;" glyph-name="arrow-small-down" d="M684.8 407.040l-160-160h-44.8l-160 160 44.8 45.44 105.6-104.96v356.48h64v-356.48l105.6 105.6 44.8-46.080z" />
<glyph unicode="&#xe90d;" glyph-name="arrow-small-left" d="M416 275.2l-160 160v44.8l160 160 45.44-44.8-104.96-105.6h356.48v-64h-356.48l105.6-105.6-46.080-44.8z" />
<glyph unicode="&#xe90e;" glyph-name="arrow-small-right" d="M552.96 640l160-160v-44.8l-160-160-45.44 44.8 104.96 105.6h-356.48v64h356.48l-105.6 105.6 46.080 44.8z" />
<glyph unicode="&#xe90f;" glyph-name="arrow-small-up" d="M320 544l160 160h44.8l160-160-44.8-45.44-105.6 104.96v-356.48h-64v356.48l-105.6-105.6-44.8 46.080z" />
<glyph unicode="&#xe910;" glyph-name="arrow-swap" d="M269.248-3.904l-205.248 205.248v45.248l205.248 205.248 45.248-45.248-150.592-150.656h796.096v-64h-796.16l150.656-150.592-45.248-45.248zM754.752 444.096l205.248 205.248v45.248l-205.248 205.248-45.248-45.248 150.592-150.592h-796.096v-64h796.16l-150.656-150.656 45.248-45.248z" />
<glyph unicode="&#xe911;" glyph-name="arrow-up" d="M886.656 512l-320 320h-45.248l-320-320 45.248-45.248 265.344 265.344v-668.096h64v668.16l265.344-265.408 45.312 45.248z" />
<glyph unicode="&#xe912;" glyph-name="azure" d="M983.693 84.486l-256 768.001c-4.454 13.247-13.12 24.673-24.678 32.531s-25.37 11.717-39.322 10.988h-303.362c-13.418 0.035-26.508-4.147-37.418-11.957s-19.089-18.851-23.383-31.563l-259.199-768.001c-3.361-9.901-4.246-20.474-2.574-30.797 1.672-10.33 5.849-20.083 12.164-28.422 6.315-8.333 14.577-14.995 24.062-19.398s19.905-6.419 30.348-5.862h187.519c13.308 0.096 26.252 4.346 37.035 12.147 10.783 7.795 18.867 18.765 23.125 31.373l39.039 113.92 192-145.28c11.157-8.083 24.627-12.346 38.402-12.16h299.521c10.336-0.339 20.602 1.837 29.914 6.33 9.318 4.499 17.402 11.181 23.571 19.488 6.163 8.301 10.221 17.978 11.827 28.192 1.613 10.221 0.723 20.672-2.592 30.47zM624.010 42.246c-4.652 0-9.167 1.574-12.801 4.48l-367.359 272.64h192l5.121 13.441 64 161.92 143.362-424.321c1.152-3.558 1.363-7.354 0.621-11.014-0.742-3.667-2.413-7.078-4.858-9.914-2.445-2.829-5.575-4.979-9.094-6.246s-7.304-1.606-10.992-0.986v0zM922.886 42.246h-238.074c4.781 13.677 4.781 28.57 0 42.24l-259.201 768.001h238.081c4.518-0.022 8.915-1.452 12.589-4.090 3.667-2.638 6.426-6.355 7.891-10.631l259.2-768c0.87-3.187 1.011-6.534 0.397-9.786-0.608-3.251-1.952-6.317-3.923-8.973-1.978-2.65-4.525-4.819-7.462-6.336s-6.189-2.349-9.498-2.426v0z" />
<glyph unicode="&#xe913;" glyph-name="azure-devops" d="M960 728.21v-544.76l-224-183.45-347.2 126.4v-125.28l-196.56 256.717 572.88-44.742v490.506l194.88 24.609zM769.043 700.804l-321.443 195.196v-128.080l-295.12-86.692-88.48-113.538v-257.841l126.56-55.93v330.549l578.483 116.335z" />
<glyph unicode="&#xe914;" glyph-name="beaker" d="M889.152 92.288l-249.152 483.328v256h64v64h-64.384v0.384l-29.184-0.32h-290.432v-63.68h64v-252.928l-249.216-486.976c-4.216-8.302-6.686-18.103-6.686-28.48 0-35.312 28.598-63.944 63.897-64h640.005c35.318 0.038 63.934 28.677 63.934 64 0 10.453-2.506 20.32-6.95 29.035l0.168-0.363zM441.152 549.888l6.848 13.76v266.048l128 1.536v-271.168l7.040-13.76 116.928-226.688h-376.832l118.016 230.272zM192 62.912l98.56 192.704h442.624l99.008-192-640.192-0.704z" />
<glyph unicode="&#xe915;" glyph-name="beaker-stop" d="M191.996-0.384h320.481c-24.168 18.086-45.695 39.501-63.896 63.578l-256.585-0.282 98.624 192.704h93.378v0.384c0 21.779 2.177 43.053 6.324 63.616h-67.19l118.016 230.272 6.848 13.76v266.048l128 1.536v-271.168l4.521-8.758c19.83 8.301 40.673 14.664 62.292 18.85l-2.813 5.46v256h63.997v64h-64.381v0.384l-29.184-0.32h-290.432v-63.68h64v-252.928l-249.216-486.976c-4.845-9.747-7.123-20.576-6.618-31.45 0.506-10.88 3.777-21.446 9.505-30.701 5.729-9.261 13.724-16.902 23.231-22.214 9.507-5.306 20.21-8.096 31.098-8.115zM561.772 468.86c42.099 28.129 91.597 43.14 142.228 43.14 67.891 0 133.005-26.975 181.011-74.984 48.013-48.010 74.989-113.12 74.989-181.016 0-50.63-15.014-100.128-43.142-142.227s-68.115-74.912-114.893-94.291c-46.778-19.373-98.253-24.435-147.91-14.56-49.66 9.875-95.269 34.259-131.071 70.061s-60.185 81.414-70.063 131.072c-9.878 49.658-4.813 101.139 14.563 147.914 19.376 46.778 52.19 86.761 94.289 114.891zM568.233 120.237c36.007-36.006 84.842-56.237 135.767-56.237 39.872-0.115 78.797 12.192 111.36 35.2l-268.158 268.159c-23.012-32.564-35.318-71.487-35.203-111.359 0-50.918 20.227-99.757 56.234-135.763zM592.639 412.797l268.154-268.157c23.014 32.563 35.322 71.488 35.206 111.36 0 50.918-20.23 99.759-56.237 135.766s-84.845 56.234-135.763 56.234c-39.878 0.115-78.797-12.191-111.361-35.203z" />
<glyph unicode="&#xe916;" glyph-name="bell" d="M856.128 283.328c-15.493 45.462-24.46 97.835-24.512 152.296v127.896c0.022 1.415 0.035 3.086 0.035 4.759 0 82.838-30.768 158.489-81.501 216.149l0.314-0.364c-51.917 59.303-124.213 99.64-205.858 110.039l-1.63 0.169c-44.416 4.608-89.6 0-132.48-14.528-42.88-13.76-81.92-36.736-114.816-67.392-32.43-29.377-58.547-65.067-76.513-105.203l-0.799-1.997c-17.23-38.073-27.363-82.529-27.584-129.328v-140.88c-0.102-54.273-9.065-106.418-25.519-155.113l1.007 3.433-38.272-113.216 30.656-42.112h224.32c0-33.664 13.76-66.56 37.504-90.368 23.68-23.68 56.64-37.504 90.368-37.504 33.664 0 66.56 13.76 90.304 37.504s37.568 56.704 37.568 90.368h224.32l30.592 42.112-37.504 113.28zM555.968 81.92c-11.488-11.711-27.44-19.009-45.096-19.136h-0.024c-17.712 0.127-33.689 7.45-45.173 19.188l-0.011 0.012c-11.735 11.48-19.055 27.431-19.2 45.093v0.027h127.936c0.019-0.569 0.030-1.237 0.030-1.908 0-16.988-7.048-32.329-18.38-43.259l-0.018-0.017zM203.008 191.36l23.744 71.296c17.707 51.349 28.063 110.529 28.351 172.087l0.001 0.137v140.864c0 36.032 7.68 71.232 22.208 103.424 14.528 32.896 35.2 62.016 62.016 85.76 26.816 24.448 58.24 42.88 91.904 53.568 34.432 11.52 70.4 15.36 105.6 11.52 66.814-9.019 124.681-41.74 165.929-89.272l0.279-0.328c39.953-46.075 64.3-106.626 64.3-172.863 0-1.688-0.016-3.373-0.047-5.054l0.004 0.252v-128.64c0-58.176 9.216-116.352 28.352-172.224l23.744-71.232h-616.32v0.768z" />
<glyph unicode="&#xe917;" glyph-name="bell-dot" d="M832 390.4c6.4-38.4 12.8-70.4 25.6-108.8l38.4-108.8-32-44.8h-224c0-32-12.8-64-38.4-89.6s-57.6-38.4-89.6-38.4c-32 0-70.4 12.8-89.6 38.4-25.6 25.6-38.4 57.6-38.4 89.6h-224l-32 44.8 38.4 108.8c12.8 51.2 25.6 102.4 25.6 153.6v140.8c0 44.8 6.4 89.6 25.6 128 19.2 44.8 44.8 76.8 76.8 108.8s70.4 51.2 115.2 64c32 12.8 70.4 19.2 102.4 19.2-12.8-19.2-25.6-44.8-38.4-70.4-12.8 0-25.6 0-44.8-12.8-32-6.4-64-25.6-89.6-51.2-25.6-19.2-51.2-51.2-64-83.2s-19.2-64-19.2-102.4v-140.8c0-57.6-12.8-115.2-25.6-172.8l-25.6-70.4h614.4l-25.6 70.4c-11.2 33.664-17.536 72.32-23.232 107.136l-2.368 14.464c25.6 0 44.8 0 64 6.4zM512 64c12.8 0 32 6.4 44.8 19.2s19.2 25.6 19.2 44.8h-128c0-19.2 6.4-32 19.2-44.8s32-19.2 44.8-19.2zM960 704c0-106.039-85.961-192-192-192s-192 85.961-192 192v0c0 106.039 85.961 192 192 192s192-85.961 192-192v0z" />
<glyph unicode="&#xe918;" glyph-name="bold" d="M320 128v640h215.168c71.424 0 125.056-14.336 160.96-43.072 36.16-28.736 54.272-71.232 54.272-127.488 0-29.888-8.768-56.384-26.24-79.552-17.472-22.848-41.28-40.576-71.424-53.184 35.584-9.664 63.552-28.16 84.096-55.36 20.8-27.008 31.168-59.2 31.168-96.704 0-57.472-19.136-102.592-57.408-135.424s-92.352-49.216-162.304-49.216h-228.288zM406.784 427.328v-230.336h143.36c40.32 0 72.128 10.112 95.36 30.336 23.488 20.48 35.2 48.64 35.2 84.416 0 77.056-43.072 115.584-129.28 115.584h-144.64zM406.784 495.040h131.136c37.952 0 68.224 9.216 90.88 27.712 22.848 18.432 34.304 43.52 34.304 75.136 0 35.2-10.56 60.672-31.616 76.48-21.12 16.128-53.184 24.192-96.32 24.192h-128.384v-203.52z" />
<glyph unicode="&#xe919;" glyph-name="book" d="M928 832h-352l-22.4-9.6-41.6-40.96-41.6 40.96-22.4 9.6h-352l-32-32v-640l32-32h338.56l55.040-54.4h44.8l55.040 54.4h338.56l32 32v640l-32 32zM480 171.52l-11.52 10.88-20.48 9.6h-320v576h306.56l47.36-47.36-1.92-549.12zM896 192h-320l-22.4-9.6-8.96-8.32v549.12l44.8 44.8h306.56v-576zM384 640h-192v-64h192v64zM384 384h-192v-64h192v64zM192 512h192v-64h-192v64zM832 640h-192v-64h192v64zM640 512h192v-64h-192v64zM640 384h192v-64h-192v64z" />
<glyph unicode="&#xe91a;" glyph-name="bookmark" d="M800 896h-576l-32-32v-832l55.808-21.44 264.192 293.632 264.192-293.632 55.808 21.44v832l-32 32zM768 115.2l-232.192 258.24h-47.616l-232.192-258.24v716.8h512v-716.8z" />
<glyph unicode="&#xe91b;" glyph-name="bracket-dot" d="M384 769.802v-0.753h-5.707c-12.781 0-24.77-2.602-36.020-7.777-11.098-4.968-20.87-11.795-29.258-20.431-8.106-8.344-14.689-18.302-19.743-29.932-4.739-11.486-7.107-23.561-7.107-36.286 0-14.607 0.253-29.080 0.76-43.422 0.515-14.308 0.516-28.488 0.002-42.541-0.262-13.923-1.435-27.591-3.519-41.002-2.12-13.37-5.704-26.226-10.744-38.515-5.087-12.403-12.020-24.186-20.751-35.352-7.213-9.227-16.050-17.815-26.453-25.791 10.403-7.976 19.24-16.564 26.453-25.791 8.731-11.167 15.664-22.95 20.751-35.352 5.044-12.301 8.623-25.272 10.742-38.897 2.087-13.165 3.258-26.838 3.521-41.010 0.514-13.798 0.513-27.981-0.002-42.541-0.506-14.074-0.76-28.422-0.76-43.034 0-12.992 2.371-25.19 7.097-36.653 5.044-11.354 11.624-21.325 19.752-29.958 8.389-8.371 18.118-15.187 29.233-20.416 11.253-4.922 23.252-7.398 36.045-7.398h5.707v-62.95h-5.707c-20.058 0-39.473 3.942-58.211 11.821-18.758 7.891-35.319 19.2-49.632 33.939-14.251 14.669-24.822 30.72-31.549 48.173l-0.033 0.083c-6.301 17.024-10.504 34.605-12.606 52.723l-0.012 0.109c-1.817 18.176-2.333 36.73-1.556 55.667 0.76 18.528 1.14 37.056 1.14 55.583 0 12.696-2.483 24.751-7.466 36.232l-0.046 0.106c-4.781 11.565-11.329 21.486-19.659 29.818l-0.122 0.122c-8.092 8.575-17.769 15.363-29.107 20.33l-0.090 0.040c-11.264 5.181-23.127 7.779-35.638 7.779h-5.707v62.95h5.707c12.531 0 24.412 2.474 35.683 7.405 11.388 5.245 21.102 12.061 29.213 20.41 8.388 8.636 14.957 18.6 19.74 29.925l0.026 0.060c4.975 11.464 7.466 23.649 7.466 36.626 0 18.528-0.38 37.056-1.14 55.585-0.777 18.934-0.26 37.362 1.558 55.28l0.009 0.087c2.1 18.378 6.303 36.094 12.608 53.132l0.031 0.084c6.726 17.452 17.299 33.5 31.549 48.172 14.313 14.735 30.874 26.048 49.632 33.936 18.739 7.88 38.154 11.823 58.211 11.823h5.707v-62.198zM891.085 416.525h4.915v62.95h-5.709c-12.512 0-24.371 2.597-35.635 7.779l-0.090 0.040c-11.341 4.966-21.018 11.754-29.107 20.33l-0.122 0.122c-8.333 8.332-14.88 18.252-19.661 29.818l-0.045 0.106c-4.986 11.481-7.469 23.536-7.469 36.232 0 18.528 0.384 37.056 1.146 55.585 0.774 18.935 0.256 37.491-1.562 55.663l-0.013 0.108c-2.099 18.121-6.304 35.701-12.602 52.728l-0.032 0.084c-6.726 17.451-17.299 33.5-31.552 48.172-14.31 14.735-30.874 26.048-49.632 33.936-18.739 7.88-38.15 11.823-58.208 11.823h-5.709v-62.951h5.709c12.794 0 24.787-2.476 36.045-7.396 11.11-5.232 20.845-12.044 29.229-20.42 8.128-8.628 14.714-18.602 19.757-29.955 4.723-11.464 7.098-23.66 7.098-36.655 0-14.608-0.256-28.956-0.762-43.034-0.512-14.561-0.518-28.74 0-42.536 0.262-14.175 1.434-27.848 3.52-41.013 2.118-13.624 5.696-26.595 10.739-38.897 5.088-12.403 12.019-24.186 20.749-35.352 7.213-9.227 16.051-17.815 26.458-25.791-0.678-0.521-1.357-1.044-2.022-1.571 33.971-3.765 65.933-14.176 94.566-29.904zM768 384c-37.971 0-75.098-11.261-106.669-32.358-31.575-21.098-56.184-51.085-70.716-86.164-14.532-35.085-18.334-73.69-10.925-110.938 7.408-37.242 25.694-71.456 52.546-98.304 26.849-26.854 61.064-45.139 98.305-52.55 37.248-7.405 75.853-3.603 110.938 10.931 35.078 14.528 65.069 39.136 86.163 70.714 21.101 31.571 32.358 68.698 32.358 106.669-0.064 50.899-20.314 99.699-56.307 135.695-35.994 35.994-84.787 56.242-135.693 56.305z" />
<glyph unicode="&#xe91c;" glyph-name="bracket-error" d="M384 769.802v-0.753h-5.707c-12.781 0-24.77-2.602-36.020-7.777-11.098-4.968-20.87-11.795-29.258-20.431-8.106-8.344-14.689-18.302-19.743-29.932-4.739-11.486-7.107-23.561-7.107-36.286 0-14.607 0.253-29.080 0.76-43.422 0.515-14.308 0.516-28.488 0.002-42.541-0.262-13.923-1.435-27.591-3.519-41.002-2.12-13.37-5.704-26.226-10.744-38.515-5.087-12.403-12.020-24.186-20.751-35.352-7.213-9.227-16.050-17.815-26.453-25.791 10.403-7.976 19.24-16.564 26.453-25.791 8.731-11.167 15.664-22.95 20.751-35.352 5.044-12.301 8.623-25.272 10.742-38.897 2.087-13.165 3.258-26.838 3.521-41.010 0.514-13.798 0.513-27.981-0.002-42.541-0.506-14.074-0.76-28.422-0.76-43.034 0-12.992 2.371-25.19 7.097-36.653 5.044-11.354 11.624-21.325 19.752-29.958 8.389-8.371 18.118-15.187 29.233-20.416 11.253-4.922 23.252-7.398 36.045-7.398h5.707v-62.95h-5.707c-20.058 0-39.473 3.942-58.211 11.821-18.758 7.891-35.319 19.2-49.632 33.939-14.251 14.669-24.822 30.72-31.549 48.173l-0.033 0.083c-6.301 17.024-10.504 34.605-12.606 52.723l-0.012 0.109c-1.817 18.176-2.333 36.73-1.556 55.667 0.76 18.528 1.14 37.056 1.14 55.583 0 12.696-2.483 24.751-7.466 36.232l-0.046 0.106c-4.781 11.565-11.329 21.486-19.659 29.818l-0.122 0.122c-8.092 8.575-17.769 15.363-29.107 20.33l-0.090 0.040c-11.264 5.181-23.127 7.779-35.638 7.779h-5.707v62.95h5.707c12.531 0 24.412 2.474 35.683 7.405 11.388 5.245 21.102 12.061 29.213 20.41 8.388 8.636 14.957 18.6 19.74 29.925l0.026 0.060c4.975 11.464 7.466 23.649 7.466 36.626 0 18.528-0.38 37.056-1.14 55.585-0.777 18.934-0.26 37.362 1.558 55.28l0.009 0.087c2.1 18.378 6.303 36.094 12.608 53.132l0.031 0.084c6.726 17.452 17.299 33.5 31.549 48.172 14.313 14.735 30.874 26.048 49.632 33.936 18.739 7.88 38.154 11.823 58.211 11.823h5.707v-62.198zM891.085 416.525h4.915v62.95h-5.709c-12.512 0-24.371 2.597-35.635 7.779l-0.090 0.040c-11.341 4.966-21.018 11.754-29.107 20.33l-0.122 0.122c-8.333 8.332-14.88 18.252-19.661 29.818l-0.045 0.106c-4.986 11.481-7.469 23.536-7.469 36.232 0 18.528 0.384 37.056 1.146 55.585 0.774 18.935 0.256 37.491-1.562 55.663l-0.013 0.108c-2.099 18.121-6.304 35.701-12.602 52.728l-0.032 0.084c-6.726 17.451-17.299 33.5-31.552 48.172-14.31 14.735-30.874 26.048-49.632 33.936-18.739 7.88-38.15 11.823-58.208 11.823h-5.709v-62.951h5.709c12.794 0 24.787-2.476 36.045-7.396 11.11-5.232 20.845-12.044 29.229-20.42 8.128-8.628 14.714-18.602 19.757-29.955 4.723-11.464 7.098-23.66 7.098-36.655 0-14.608-0.256-28.956-0.762-43.034-0.512-14.561-0.518-28.74 0-42.536 0.262-14.175 1.434-27.848 3.52-41.013 2.118-13.624 5.696-26.595 10.739-38.897 5.088-12.403 12.019-24.186 20.749-35.352 7.213-9.227 16.051-17.815 26.458-25.791l-2.022-1.571c33.971-3.765 65.933-14.176 94.566-29.904zM661.331 351.642c31.571 21.097 68.698 32.358 106.669 32.358 50.906-0.063 99.699-20.311 135.693-56.305 35.994-35.996 56.243-84.796 56.307-135.695 0-37.971-11.258-75.098-32.358-106.669-21.094-31.578-51.085-56.186-86.163-70.714-35.085-14.534-73.69-18.336-110.938-10.931-37.242 7.411-71.456 25.696-98.305 52.55-26.852 26.848-45.138 61.062-52.546 98.304-7.409 37.248-3.606 75.853 10.925 110.938 14.532 35.078 39.141 65.066 70.716 86.164zM841.37 310.63l-73.37-73.376-73.37 73.376-45.254-45.254 73.37-73.376-73.376-73.37 45.261-45.261 73.37 73.376 73.376-73.37 45.254 45.254-73.376 73.37 73.376 73.37-45.261 45.261z" />
<glyph unicode="&#xe91d;" glyph-name="briefcase" d="M928 704h-224v96l-32 32h-320l-32-32v-96h-224l-32-32v-512l32-32h832l32 32v512l-32 32zM384 768h256v-64h-256v64zM896 640v-48.64l-256-143.36v32l-31.36 32h-192l-32.64-32v-32l-256 146.56v45.44h768zM576 448v-64h-128v64h128zM128 192v328.96l256-146.56v-22.4l32-32h192l32 32v19.84l256 145.92v-325.76h-768z" />
<glyph unicode="&#xe91e;" glyph-name="broadcast" d="M298.688 831.296c59.921 40.53 133.793 64.702 213.311 64.704h0.001c211.975-0.255 383.745-172.025 384-383.975v-0.025c-0.013-166.088-105.467-307.543-253.072-361.073l-2.672-0.847v2.816c1.024 0.896 1.984 1.92 2.944 2.88 17.145 17.129 27.757 40.795 27.776 66.94v8.772c98.301 56.551 163.426 160.994 163.426 280.648 0 66.741-20.262 128.75-54.97 180.211l0.729-1.146c-58.688 86.983-156.875 143.425-268.245 143.425-178.145 0-322.56-144.415-322.56-322.56 0-119.317 64.784-223.503 161.096-279.301l1.549-0.828v-9.216c0.020-27.581 11.825-52.4 30.652-69.698l0.068-0.062v-2.56c-149.823 54.604-254.87 195.83-254.87 361.592 0 132.613 67.234 249.523 169.474 318.501l1.363 0.867zM597.952 200.96c-5.555-5.537-13.22-8.96-21.685-8.96-0.026 0-0.053 0-0.079 0h0.004v-161.28c0-16.966-13.754-30.72-30.72-30.72v0h-68.032c0.704 0-0.256 0.256-2.176 0.768-4.8 1.28-15.424 4.096-19.52 8.256-5.575 5.562-9.024 13.252-9.024 21.749 0 0.004 0 0.008 0 0.012v-0.001 161.216c-16.966 0-30.72 13.754-30.72 30.72v0 129.28c0 35.346 28.654 64 64 64v0h62.976c35.346 0 64-28.654 64-64v0-129.28c-0.014-8.35-3.357-15.917-8.773-21.445l-0.251-0.251zM680.96 512c0-33.6-10.048-66.176-28.48-93.76 11.712-19.328 18.496-41.984 18.496-66.24v-6.784c44.049 42.002 71.44 101.138 71.44 166.671 0 63.648-25.837 121.262-67.596 162.925l-0.004 0.004c-41.976 43.554-100.819 70.603-165.979 70.603-127.246 0-230.4-103.154-230.4-230.4 0-66.593 28.252-126.587 73.424-168.651l0.139-0.128v5.76c0 24.576 6.912 47.552 18.944 67.008-17.486 26.183-27.904 58.379-27.904 93.009 0 93.314 75.646 168.96 168.96 168.96s168.96-75.646 168.96-168.96c0-0.006 0-0.012 0-0.018v0.001zM576 512c0-35.346-28.654-64-64-64s-64 28.654-64 64v0c0 35.346 28.654 64 64 64s64-28.654 64-64v0z" />
<glyph unicode="&#xe91f;" glyph-name="browser" d="M96 896h832l32-32v-768l-32-32h-832l-32 32v768l32 32zM128 640v-512h768v512h-768zM128 704h768v128h-768v-128z" />
<glyph unicode="&#xe920;" glyph-name="bug" d="M696.128 672v37.248c0 103.14-83.612 186.752-186.752 186.752s-186.752-83.612-186.752-186.752v0-37.248h-53.312l-106.432 106.944-37.952-37.76 103.104-103.616-1.216-3.136c-20.388-53.203-32.196-114.744-32.196-179.042 0-0.753 0.002-1.506 0.005-2.258v0.117c0-12.544 0.448-24.96 1.28-37.12l0.192-2.88h-132.096v-53.504h138.816l0.384-2.176c11.008-60.224 32.256-115.328 61.056-161.984l2.176-3.52-125.632-125.632 37.888-37.888 119.744 119.808 3.712-4.224c55.552-63.488 128.128-101.696 207.232-101.696 77.952 0 149.504 37.056 204.736 98.816l3.648 4.096 122.24-122.88 37.952 37.824-127.744 128.384 2.24 3.584c29.888 47.36 51.84 103.616 63.104 165.312l0.384 2.176h138.944v53.504h-132.16l0.192 2.816c0.815 11.105 1.279 24.058 1.28 37.119v0.001c0.003 0.626 0.004 1.366 0.004 2.106 0 65.157-12.141 127.478-34.283 184.825l1.191-3.507-1.216 3.2 100.48 100.48-37.888 37.76-106.112-106.048h-50.24zM376.128 672v37.248c0 73.591 59.657 133.248 133.248 133.248s133.248-59.657 133.248-133.248v0-37.248h-266.432zM740.736 618.432l1.28-3.392c18.112-48.192 28.608-103.040 28.608-161.792 0-103.040-32.192-194.176-81.536-258.368-49.28-64.064-113.344-98.88-179.712-98.88-66.304 0-130.368 34.816-179.648 98.88-49.408 64.192-81.6 155.328-81.6 258.368 0 58.752 10.496 113.6 28.672 161.792l1.28 3.392h462.656z" />
<glyph unicode="&#xe921;" glyph-name="calendar" d="M928 832h-96v64h-64v-64h-512v64h-64v-64h-96l-32-32v-768l32-32h832l32 32v768l-32 32zM896 64h-768v576h768v-576zM896 704h-768v64h768v-64zM256 448h-64v-64h64v64zM192 320h64v-64h-64v64zM256 192h-64v-64h64v64zM384 448h64v-64h-64v64zM448 320h-64v-64h64v64zM384 192h64v-64h-64v64zM448 576h-64v-64h64v64zM576 448h64v-64h-64v64zM640 320h-64v-64h64v64zM576 192h64v-64h-64v64zM640 576h-64v-64h64v64zM768 448h64v-64h-64v64zM832 320h-64v-64h64v64zM768 576h64v-64h-64v64z" />
<glyph unicode="&#xe922;" glyph-name="call-incoming" d="M803.008 363.008c-11.24 4.735-24.307 7.487-38.016 7.488v0c-1.306 0.079-2.834 0.124-4.371 0.124-11.275 0-21.984-2.426-31.633-6.784l0.485 0.196c-10.54-5.129-19.559-10.625-28.005-16.854l0.485 0.342c-8.607-6.289-16.137-13.19-22.84-20.834l-0.136-0.158c-6.656-7.68-13.12-14.72-19.456-21.056-5.635-5.697-11.695-10.945-18.138-15.703l-0.422-0.297c-5.524-3.998-12.434-6.394-19.904-6.394-9.643 0-18.353 3.994-24.566 10.417l-0.009 0.009c-7.964 7.473-14.801 13.986-21.592 20.544l0.6-0.576c-8.96 8.704-19.968 19.2-32.96 31.552-14.987 14.223-28.182 26.932-41.288 39.731l0.776-0.755-43.52 42.496c-26.411 25.838-51.68 52.242-76.060 79.457l-1.38 1.567c-8.51 9.326-16.719 19.424-24.337 29.976l-0.687 1c-6.016 8.64-9.024 14.976-9.024 19.008-0.025 0.452-0.039 0.981-0.039 1.513 0 7.013 2.452 13.454 6.546 18.511l-0.043-0.055c4.672 6.016 10.24 12.16 16.512 18.56 6.4 6.272 13.376 12.992 20.992 19.968 7.68 7.040 14.72 14.528 21.056 22.528 6.272 8 11.648 17.152 16 27.52 4.288 10.24 6.464 21.952 6.464 34.944-0.001 27.503-11.072 52.419-29.001 70.537l0.009-0.009c-11.756 11.545-22.862 23.605-33.345 36.202l-0.639 0.79c-12.484 14.808-25.392 28.183-39.139 40.649l-0.349 0.311c-13.142 12.060-27.72 22.971-43.326 32.345l-1.218 0.679c-13.687 8.415-30.25 13.428-47.979 13.504h-0.021c-27.479-0.019-52.37-11.087-70.473-29.001l0.009 0.009c-17.344-17.344-32.512-32.832-45.504-46.528-12.107-12.577-23.003-26.485-32.399-41.431l-0.625-1.065c-8.687-14.088-15.56-30.425-19.735-47.813l-0.233-1.147c-4.174-18.148-6.566-38.988-6.566-60.387 0-1.63 0.014-3.257 0.042-4.881l-0.003 0.244c0-35.328 5.696-72 17.024-110.016 11.328-37.952 26.624-75.84 45.952-113.472 19.328-37.696 42.88-74.688 70.528-111.040 27.648-36.288 57.664-70.784 89.984-103.488 32.32-32.64 66.688-62.848 103.040-90.496 36.288-27.648 73.472-51.52 111.488-71.488 37.952-20.032 76.16-35.648 114.496-46.976 33.458-10.548 71.955-16.752 111.86-17.023l0.14-0.001c22.867 0.012 45.129 2.577 66.524 7.423l-2.012-0.383c18.716 4.302 35.239 11.187 50.191 20.379l-0.719-0.411c14.72 8.96 28.8 19.968 42.496 32.96 13.696 13.056 28.992 28.032 46.016 45.056 17.914 18.112 28.984 43.027 28.992 70.526v0.002c-0.797 12.040-3.125 23.266-6.8 33.863l0.272-0.903c-4.037 11.847-9.619 22.117-16.634 31.227l0.186-0.251c-8.158 10.669-15.87 19.944-23.926 28.903l0.374-0.423c-8.588 9.595-17.383 18.41-26.631 26.731l-0.313 0.277c-3.571 3.289-12.528 11.294-21.51 19.271l-6.010 5.241c-8.42 7.442-16.072 14.628-23.505 22.032l0.017-0.016c-9.034 9.056-19.845 16.334-31.866 21.269l-0.646 0.235zM779.52 69.504c-14.061-3.525-30.203-5.548-46.818-5.548-1.473 0-2.943 0.016-4.409 0.048l0.219-0.004c-34.847 0.68-68.132 6.293-99.529 16.167l2.505-0.679c-38.967 11.913-72.59 26.344-104.246 43.891l2.742-1.395c-74.624 41.31-138.773 90.163-194.935 146.934l-0.073 0.074c-28.491 28.805-55.486 59.288-80.744 91.209l-1.752 2.295c-23.45 29.468-45.304 62.519-64.16 97.429l-1.76 3.563c-16.040 29.205-30.65 63.316-41.94 98.905l-1.132 4.135c-9.576 29.534-15.22 63.532-15.487 98.81l-0.001 0.134c0 0.060 0 0.132 0 0.203 0 17.873 2.194 35.234 6.326 51.828l-0.31-1.471c3.648 13.952 9.152 26.496 16.512 37.44 7.296 11.008 16.32 21.696 26.944 32 10.688 10.368 22.848 22.4 36.48 36.032 6.309 6.482 15.119 10.504 24.867 10.504 0.258 0 0.515-0.003 0.771-0.008l-0.038 0.001c3.968 0.32 10.112-2.304 18.432-8s17.344-12.48 27.008-20.48c21.061-17.643 39.894-36.475 56.964-56.835l0.572-0.701c8-9.6 14.656-18.496 19.968-26.496s8-14.144 8-18.496c0.055-0.65 0.086-1.406 0.086-2.17 0-6.808-2.478-13.038-6.581-17.836l0.031 0.038c-4.672-5.376-10.24-11.52-16.512-18.56-6.4-6.976-13.376-13.632-20.992-19.968-7.68-6.336-14.72-13.824-21.056-22.464-5.978-8.106-11.331-17.321-15.635-27.102l-0.365-0.93c-4.1-9.687-6.483-20.951-6.483-32.772 0-0.629 0.007-1.256 0.020-1.881l-0.002 0.093c0.32-13.632 3.008-26.432 8-38.4 4.992-12.032 12.16-22.72 21.504-32l238.464-238.528c17.762-18.173 42.521-29.442 69.913-29.442 0.216 0 0.433 0.001 0.649 0.002h-0.033c1.215-0.069 2.637-0.108 4.069-0.108 11.196 0 21.833 2.396 31.425 6.703l-0.486-0.195c19.827 9.316 36.616 21.948 50.363 37.352l0.133 0.152c7.040 7.68 13.44 14.72 19.52 21.056 5.952 6.272 12.16 11.648 18.496 16 5.551 3.993 12.472 6.406 19.954 6.464h0.014c4.672 0 11.008-2.688 19.008-8s16.832-12.16 26.496-20.48c9.664-8.32 19.648-17.536 30.016-27.52 10.304-9.984 19.52-19.968 27.52-30.016 7.936-9.984 14.656-19.008 19.968-27.008s8-14.080 8-18.496c0.001-0.102 0.002-0.222 0.002-0.343 0-9.669-4.023-18.399-10.486-24.606l-0.011-0.011c-14.336-14.016-26.496-26.24-36.48-36.48-9.543-9.909-20.015-18.796-31.315-26.563l-0.685-0.445c-10.749-7.349-23.241-13.185-36.639-16.824l-0.865-0.2zM960 851.008l-44.992 44.992-297.536-296.96v210.432h-64v-320h320v64h-210.432l296.96 297.472z" />
<glyph unicode="&#xe923;" glyph-name="call-outgoing" d="M553.472 534.528l297.088 297.472h-210.56v64h320v-320h-64v210.56l-297.472-297.152-45.056 45.056zM764.992 370.496c27.503-0.001 52.419-11.072 70.537-29.001l-0.009 0.009c7.040-7.040 14.848-14.336 23.488-22.016l27.52-24.512c9.6-8.64 18.624-17.664 26.944-26.944 8.32-9.344 16.192-18.88 23.552-28.544 7.296-9.6 12.8-19.968 16.448-30.976 3.712-11.008 5.888-22.016 6.528-33.024-0.026-27.478-11.092-52.366-29.001-70.473l0.009 0.009c-17.024-17.024-32.32-32-46.016-45.056-12.575-12.081-26.483-22.957-41.426-32.334l-1.070-0.626c-14.72-8.96-31.168-15.68-49.472-20.032-19.348-4.435-41.566-6.976-64.378-6.976-0.047 0-0.094 0-0.141 0h0.007c-40.046 0.273-78.542 6.476-114.792 17.774l2.792-0.75c-44.077 13.321-82.034 29.279-117.898 48.622l3.338-1.646c-42.578 22.736-79.033 46.436-113.276 72.862l1.852-1.374c-37.875 28.986-71.496 58.63-102.959 90.414l-0.081 0.082c-32.32 32.64-62.336 67.2-89.984 103.488-25.002 32.291-48.408 68.641-68.573 106.963l-1.955 4.077c-17.011 32.037-32.616 69.629-44.701 108.766l-1.251 4.706c-10.492 32.844-16.692 70.646-17.023 109.848l-0.001 0.168c0 25.344 2.176 46.976 6.528 65.024 4.408 18.535 11.281 34.872 20.386 49.691l-0.418-0.731c8.96 14.72 20.032 28.8 33.024 42.496s28.16 29.184 45.44 46.528c18.11 17.921 43.027 28.992 70.531 28.992 0.022 0 0.043 0 0.065 0h-0.003c16.64 0 32.64-4.48 48-13.44 15.36-9.088 30.208-20.032 44.544-33.088 14.272-12.992 27.52-26.624 39.488-40.96s23.296-26.688 33.92-36.992c17.92-18.109 28.991-43.025 28.992-70.528v0c0.010-0.509 0.016-1.11 0.016-1.712 0-11.994-2.357-23.439-6.633-33.894l0.216 0.598c-4.374-10.512-9.746-19.582-16.19-27.77l0.19 0.25c-6.579-8.224-13.473-15.564-20.902-22.326l-0.154-0.138c-7.68-7.040-14.656-13.696-20.992-20.032-5.763-5.704-11.167-11.736-16.194-18.080l-0.318-0.416c-4.051-5.002-6.503-11.442-6.503-18.455 0-0.532 0.014-1.061 0.042-1.586l-0.003 0.073c0-4.032 3.008-10.368 8.96-19.008 8.302-11.551 16.511-21.649 25.263-31.242l-0.239 0.266c25.684-28.789 50.975-55.195 77.158-80.688l0.346-0.336c14.976-14.72 29.504-28.8 43.52-42.496 13.952-13.696 27.52-26.688 40.512-39.040 12.992-12.288 24-22.784 32.96-31.488 8.96-8.64 16-15.36 20.992-19.968 6.225-6.449 14.946-10.454 24.602-10.454 7.487 0 14.411 2.407 20.041 6.49l-0.099-0.068c5.952 4.352 12.16 9.728 18.496 16 6.336 6.4 12.8 13.376 19.456 21.056s14.336 14.656 23.040 20.992c8.64 6.336 17.792 11.84 27.52 16.512 9.193 4.157 19.932 6.579 31.236 6.579 1.484 0 2.959-0.042 4.423-0.124l-0.203 0.009zM728.512 64c20.352 0 37.312 1.856 51.008 5.504 14.263 3.839 26.755 9.675 37.931 17.299l-0.427-0.275c11.328 7.68 21.952 16.64 32 26.944 9.984 10.368 22.144 22.528 36.48 36.48 7.040 7.040 10.496 15.36 10.496 25.024 0 4.352-2.688 10.496-8 18.56-7.076 10.385-13.658 19.164-20.589 27.647l0.557-0.703c-8.844 10.948-17.846 20.761-27.42 29.984l-0.1 0.096c-10.24 9.92-20.288 19.136-29.952 27.456-7.896 6.937-16.535 13.666-25.56 19.872l-0.936 0.608c-8 5.312-14.336 8-19.008 8-7.496-0.058-14.417-2.471-20.072-6.535l0.104 0.071c-6.951-4.842-13.027-10.105-18.503-15.938l-0.057-0.062c-5.952-6.4-12.48-13.376-19.456-21.056-7.040-7.68-14.72-14.656-23.040-20.992s-17.472-11.84-27.52-16.512c-9.171-4.143-19.883-6.557-31.158-6.557-1.332 0-2.655 0.034-3.97 0.1l0.185-0.007c-0.183-0.001-0.399-0.002-0.615-0.002-27.391 0-52.15 11.269-69.895 29.423l-0.018 0.019-238.464 238.592c-8.977 8.916-16.241 19.544-21.261 31.356l-0.243 0.644c-4.826 11.369-7.743 24.574-7.999 38.428l-0.001 0.1c0 12.992 2.176 24.512 6.464 34.496 4.352 9.984 9.664 19.328 16 28.032 6.4 8.64 13.376 16.128 21.056 22.464s14.656 12.992 20.992 20.032c6.336 6.976 11.84 13.12 16.512 18.496 4.072 4.76 6.55 10.99 6.55 17.798 0 0.764-0.031 1.52-0.092 2.268l0.006-0.098c0 4.352-2.688 10.496-8 18.56-6.845 10.045-13.405 18.659-20.37 26.922l0.402-0.49c-9.085 10.855-18.077 20.637-27.495 29.992l-0.025 0.024c-9.378 9.443-19.161 18.435-29.341 26.969l-0.675 0.551c-7.908 6.647-16.708 13.373-25.811 19.694l-1.197 0.786c-8.32 5.696-14.464 8.32-18.496 8-0.181 0.003-0.394 0.005-0.607 0.005-9.747 0-18.556-4.020-24.857-10.494l-0.007-0.008c-11.813-11.812-23.698-23.555-35.653-35.227l-0.827-0.805c-9.945-9.523-18.835-19.998-26.572-31.323l-0.436-0.677c-7.206-10.753-12.88-23.26-16.328-36.661l-0.184-0.843c-3.811-15.162-6.004-32.57-6.016-50.488v-0.008c0-32 5.12-64.96 15.488-98.944 12.4-39.723 26.989-73.835 44.534-106.108l-1.526 3.068c18.368-34.624 40.32-68.352 65.984-100.992s53.184-63.808 82.56-93.44c56.218-56.868 120.346-105.74 190.64-144.873l4.304-2.199c28.912-16.148 62.535-30.579 97.708-41.483l3.796-1.013c28.892-9.195 62.177-14.808 96.673-15.483l0.351-0.005z" />
<glyph unicode="&#xe924;" glyph-name="case-sensitive" d="M566.625 211.066h-63.938l-52.25 138.184h-209l-49.156-138.184h-64.281l189.062 492.934h59.812l189.75-492.934zM431.532 401.156l-77.344 210.031c-2.521 6.876-5.042 17.875-7.562 33h-1.375c-2.292-13.979-4.927-24.979-7.906-33l-76.657-210.031h170.844zM880.384 211.066h-56.371v54.995h-1.376c-24.518-42.163-60.614-63.251-108.282-63.251-35.066 0-62.56 9.286-82.5 27.846-19.708 18.56-29.562 43.2-29.562 73.907 0 65.77 38.732 104.041 116.184 114.812l105.536 14.781c0 59.812-24.179 89.719-72.531 89.719-42.4 0-80.666-14.438-114.814-43.313v57.75c34.603 22 74.481 33 119.627 33 82.726 0 124.090-43.771 124.090-131.313v-228.934zM824.013 389.125l-84.909-11.688c-26.125-3.667-45.83-10.198-59.123-19.594-13.293-9.167-19.936-25.552-19.936-49.159 0-17.184 6.074-31.277 18.214-42.278 12.378-10.771 28.762-16.154 49.158-16.154 27.955 0 50.989 9.734 69.094 29.216 18.33 19.706 27.501 44.573 27.501 74.594v35.062z" />
<glyph unicode="&#xe925;" glyph-name="check" d="M923.584 747.328l-542.080-640-50.56 2.304-214.4 305.28 52.352 36.736 190.592-271.36 515.264 608.384 48.896-41.344z" />
<glyph unicode="&#xe926;" glyph-name="check-all" d="M999.68 729.856l-499.52-589.696-46.592 2.112-197.568 281.28 48.256 33.92 175.616-250.048 474.816 560.576 44.992-38.144zM462.976 398.464l280.704 331.392-44.992 38.144-270.72-319.616 35.008-49.92zM363.776 372.672l35.072-49.92-35.008 49.92zM260.288 250.432l35.008-49.92-51.136-60.352-46.592 2.112-197.568 281.28 48.256 33.92 175.616-250.048 36.48 43.008z" />
<glyph unicode="&#xe927;" glyph-name="checklist" d="M240 673.28h-45.44l-66.56 67.2 45.44 44.8 44.16-43.52 90.24 90.24 45.44-45.44-113.28-113.28zM447.36 768h512v-64h-512v64zM447.36 576h512v-64h-512v64zM959.36 384h-512v-64h512v64zM447.36 192h512v-64h-512v64zM194.56 481.28h45.44l113.28 113.28-45.44 44.8-90.24-90.24-44.16 44.16-45.44-45.44 66.56-66.56zM240 288.64h-45.44l-66.56 66.56 45.44 45.44 44.16-44.16 90.24 90.88 45.44-45.44-113.28-113.28zM194.56 96h45.44l113.28 113.28-45.44 45.44-90.24-90.88-44.16 44.16-45.44-44.8 66.56-67.2z" />
<glyph unicode="&#xe928;" glyph-name="chevron-down" d="M510.464 315.392l278.848 278.848 39.68-39.552-298.816-298.688h-39.552l-298.624 298.688 39.616 39.552 278.848-278.848z" />
<glyph unicode="&#xe929;" glyph-name="chevron-left" d="M379.392 449.536l278.848-278.848-39.552-39.68-298.688 298.816v39.552l298.688 298.624 39.552-39.616-278.848-278.848z" />
<glyph unicode="&#xe92a;" glyph-name="chevron-right" d="M644.608 446.464l-278.848 278.848 39.552 39.68 298.688-298.816v-39.552l-298.688-298.624-39.552 39.616 278.848 278.848z" />
<glyph unicode="&#xe92b;" glyph-name="chevron-up" d="M513.536 580.608l-278.848-278.848-39.68 39.552 298.816 298.688h39.552l298.624-298.688-39.616-39.552-278.848 278.848z" />
<glyph unicode="&#xe92c;" glyph-name="chrome-close" d="M455.424 448l-291.712-291.712 56.576-56.576 291.712 291.712 291.712-291.712 56.576 56.576-291.712 291.712 291.712 291.712-56.576 56.576-291.712-291.712-291.712 291.712-56.576-56.576 291.712-291.712z" />
<glyph unicode="&#xe92d;" glyph-name="chrome-maximize" d="M192 768v-640h640v640h-640zM768 192h-512v512h512v-512z" />
<glyph unicode="&#xe92e;" glyph-name="chrome-minimize" d="M896 448v-64h-704v64h704z" />
<glyph unicode="&#xe92f;" glyph-name="chrome-restore" d="M192 640v-576h576v576h-576zM704 128h-448v448h448v-448zM320 640h64v64h448v-448h-64v-64h128v576h-576v-128z" />
<glyph unicode="&#xe930;" glyph-name="circle-filled" d="M512 704c23.488 0 46.144-3.072 68.032-9.28 44.409-12.422 82.468-35.336 112.745-65.96l0.023-0.024c30.621-30.307 53.514-68.365 65.493-110.991l0.427-1.777c6.208-21.76 9.28-44.48 9.28-67.968s-3.072-46.144-9.28-68.032c-12.362-44.48-35.262-82.61-65.899-112.939l-0.021-0.021c-30.414-30.469-68.427-53.344-110.954-65.539l-1.814-0.445c-21.952-6.016-44.544-9.024-68.032-9.024s-46.144 3.008-68.032 8.96c-44.385 12.74-82.443 35.62-112.966 66.054l0.006-0.006c-30.438 30.532-53.321 68.614-65.596 111.191l-0.452 1.833c-5.69 20.113-8.962 43.211-8.962 67.073 0 0.315 0.001 0.629 0.002 0.943v-0.048c0 23.488 3.008 46.144 8.96 68.032 6.628 23.21 15.509 43.457 26.698 62.165l-0.65-1.173c22.749 38.128 53.682 69.164 90.535 91.374l1.177 0.658c17.615 10.493 37.966 19.258 59.475 25.243l1.773 0.421c20.182 5.892 43.367 9.281 67.343 9.281 0.242 0 0.485 0 0.727-0.001h-0.037z" />
<glyph unicode="&#xe931;" glyph-name="circle-large-filled" d="M512 896c0.423 0.001 0.924 0.002 1.425 0.002 41.874 0 82.366-5.914 120.688-16.952l-3.073 0.758c77.708-21.754 144.301-61.869 197.269-115.477l0.043-0.043c53.617-53.023 93.709-119.613 114.708-194.201l0.748-3.111c10.816-38.208 16.192-77.824 16.192-118.976s-5.376-80.768-16.192-119.040c-11.269-40.73-26.653-76.324-46.176-109.17l1.12 2.034c-40.005-66.58-94.307-120.739-158.938-159.419l-2.086-1.157c-30.695-18.45-66.142-33.949-103.607-44.67l-3.145-0.77c-35.329-10.038-75.904-15.809-117.826-15.809-0.404 0-0.808 0.001-1.213 0.002h0.063c-0.429-0.001-0.937-0.002-1.445-0.002-41.838 0-82.334 5.748-120.74 16.498l3.145-0.752c-40.771 11.589-76.339 27.105-109.229 46.656l2.093-1.152c-34.339 20.559-64.037 43.721-90.593 70.048l0.033-0.032c-26.298 26.521-49.46 56.22-68.84 88.451l-1.176 2.109c-18.382 30.816-33.879 66.408-44.654 103.995l-0.786 3.205c-10.038 35.332-15.809 75.909-15.809 117.835 0 0.401 0.001 0.803 0.002 1.204v-0.062c0 41.152 5.248 80.768 15.744 119.040 11.52 40.588 27.039 76.011 46.63 108.715l-1.126-2.027c39.835 66.718 93.995 121.021 158.512 159.871l2.064 1.153c30.831 18.412 66.447 33.798 104.095 44.315l3.105 0.741c35.27 10.28 75.786 16.194 117.684 16.194 0.454 0 0.908-0.001 1.362-0.002h-0.070z" />
<glyph unicode="&#xe932;" glyph-name="circle-large-outline" d="M613.632 818.24c-30.034 8.737-64.535 13.763-100.21 13.763-0.5 0-0.999-0.001-1.499-0.003h0.077c-35.456 0-69.248-4.672-101.632-13.76l-0.384-0.128c-32.896-9.024-63.36-21.888-91.648-38.464-57.151-34.403-103.644-81.060-136.861-136.573l-0.995-1.795-0.128-0.256c-15.786-26.241-29.057-56.543-38.25-88.569l-0.662-2.695c-8.535-30.163-13.442-64.804-13.442-100.591 0-0.411 0.001-0.822 0.002-1.232v0.063c0-35.52 4.48-69.44 13.44-101.824 18.976-66.693 53.321-123.88 99.074-169.666l-0.002 0.002c23.68-23.36 49.536-43.328 77.824-60.16 26.399-15.75 56.888-29.040 89.085-38.298l2.755-0.678c30.182-8.495 64.843-13.378 100.645-13.378 0.414 0 0.829 0.001 1.243 0.002h-0.064c35.52 0 69.44 4.48 101.824 13.44 32.96 9.28 63.36 22.272 91.264 38.848l0.256 0.128c57.282 34.245 103.916 80.756 137.313 136.148l0.991 1.772c15.737 26.361 28.855 56.817 37.778 89.017l0.622 2.631 0.192 0.384c8.737 30.032 13.763 64.53 13.763 100.202 0 0.503-0.001 1.006-0.003 1.508v-0.078c0 35.456-4.608 69.248-13.76 101.632l-0.128 0.384c-9.53 34.611-22.646 64.874-39.333 92.753l0.933-1.681-0.128 0.256c-17.47 29.446-37.431 54.867-60.249 77.402l-0.039 0.038-0.512 0.512c-22.574 22.856-47.994 42.817-75.708 59.332l-1.732 0.956-0.256 0.128c-26.197 15.754-56.46 28.87-88.474 37.783l-2.598 0.617-0.384 0.128zM898.752 221.76c-40.012-66.554-94.313-120.691-158.937-159.355l-2.087-1.157c-30.695-18.45-66.142-33.949-103.607-44.67l-3.145-0.77c-35.329-10.038-75.904-15.809-117.826-15.809-0.404 0-0.808 0.001-1.213 0.002h0.063c-0.429-0.001-0.937-0.002-1.445-0.002-41.838 0-82.334 5.748-120.74 16.498l3.145-0.752c-40.771 11.589-76.339 27.105-109.229 46.656l2.093-1.152c-34.339 20.559-64.037 43.721-90.593 70.048l0.033-0.032c-26.298 26.521-49.46 56.22-68.84 88.451l-1.176 2.109c-18.382 30.816-33.879 66.408-44.654 103.995l-0.786 3.205c-10.038 35.332-15.809 75.909-15.809 117.835 0 0.401 0.001 0.803 0.002 1.204v-0.062c0 41.152 5.248 80.768 15.744 119.040 11.52 40.588 27.039 76.011 46.63 108.715l-1.126-2.027c39.835 66.718 93.995 121.021 158.512 159.871l2.064 1.153c30.831 18.412 66.447 33.798 104.095 44.315l3.105 0.741c35.27 10.28 75.786 16.194 117.684 16.194 0.454 0 0.908-0.001 1.362-0.002h-0.070c0.423 0.001 0.924 0.002 1.425 0.002 41.874 0 82.366-5.914 120.688-16.952l-3.073 0.758c77.708-21.754 144.301-61.869 197.269-115.477l0.043-0.043c53.617-53.023 93.709-119.613 114.708-194.201l0.748-3.111c10.816-38.208 16.192-77.824 16.192-118.976s-5.376-80.768-16.192-119.040c-11.269-40.73-26.653-76.324-46.176-109.17l1.12 2.034z" />
<glyph unicode="&#xe933;" glyph-name="circle-outline" d="M512 192c141.385 0 256 114.615 256 256s-114.615 256-256 256v0c-141.385 0-256-114.615-256-256s114.615-256 256-256v0zM679.040 448c0-92.254-74.786-167.040-167.040-167.040s-167.040 74.786-167.040 167.040v0c0 92.254 74.786 167.040 167.040 167.040s167.040-74.786 167.040-167.040v0z" />
<glyph unicode="&#xe934;" glyph-name="circle-slash" d="M512 896c247.424 0 448-200.576 448-448s-200.576-448-448-448c-247.424 0-448 200.576-448 448v0c0.291 247.307 200.694 447.709 447.973 448h0.027zM128 448c0-90.752 32.256-178.56 91.072-247.68l540.608 540.608c-66.422 56.624-153.252 91.072-248.128 91.072-211.83 0-383.552-171.722-383.552-383.552 0-0.158 0-0.315 0-0.473v0.025zM896 448c0 90.752-32.256 178.56-91.072 247.68l-540.608-540.608c66.422-56.624 153.252-91.072 248.128-91.072 211.83 0 383.552 171.722 383.552 383.552 0 0.158 0 0.315 0 0.473v-0.025z" />
<glyph unicode="&#xe935;" glyph-name="circuit-board" d="M928 896h-832l-32-32v-832l32-32h832l32 32v832l-32 32zM896 64h-576v128h147.2c19.2-38.4 64-64 108.8-64 70.4 0 128 57.6 128 128s-57.6 128-128 128-128-57.6-128-128h-192v-192h-128v768h128v-147.2c-38.4-19.2-64-64-64-108.8 0-70.4 57.6-128 128-128s128 57.6 128 128h128c0-70.4 57.6-128 128-128s128 57.6 128 128-57.6 128-128 128c-44.8 0-89.6-25.6-108.8-64h-166.4c-19.2 38.4-64 64-108.8 64v128h576v-768zM512 256c0 38.4 25.6 64 64 64s64-25.6 64-64-25.6-64-64-64-64 25.6-64 64zM320 640c38.4 0 64-25.6 64-64s-25.6-64-64-64-64 25.6-64 64 25.6 64 64 64zM704 640c38.4 0 64-25.6 64-64s-25.6-64-64-64-64 25.6-64 64 25.6 64 64 64z" />
<glyph unicode="&#xe936;" glyph-name="clear-all" d="M640 153.6l44.8-44.8 102.4 102.4 102.4-102.4 51.2 44.8-108.8 102.4 108.8 102.4-51.2 51.2-102.4-108.8-102.4 108.8-44.8-51.2 102.4-102.4-102.4-102.4zM64 704h896v64h-896v-64zM64 512h896v64h-896v-64zM576 352v32h-512v-64h512v32zM576 128v64h-512v-64h512z" />
<glyph unicode="&#xe937;" glyph-name="clippy" d="M448 64.512h-192v576h512v-128h64v160l-32 32h-96v64h-64c0 70.692-57.308 128-128 128s-128-57.308-128-128v0h-67.84v-64h-92.16l-32-32v-640l32-32h224v64zM448 781.312c4.976 26.028 25.172 46.224 50.799 51.136l0.401 0.064c3.686 0.754 7.923 1.185 12.261 1.185 8.977 0 17.522-1.848 25.275-5.185l-0.416 0.159c11.998-4.643 21.845-12.633 28.663-22.822l0.137-0.218c7.205-10.212 11.516-22.915 11.516-36.625 0-35.346-28.654-64-64-64-26.873 0-49.877 16.562-59.362 40.035l-0.153 0.429c-3.657 7.809-5.79 16.956-5.79 26.601 0 3.26 0.244 6.462 0.714 9.591l-0.044-0.352zM901.12 175.872l-69.12-69.76v342.4h-64v-341.76l-69.12 69.12-45.44-45.44 124.16-123.52h45.44l123.52 123.52-45.44 45.44zM522.24 442.112h45.44l123.52-123.52-45.44-45.44-69.12 69.12v-341.76h-64v342.4l-69.12-69.76-45.44 45.44 124.16 123.52z" />
<glyph unicode="&#xe938;" glyph-name="close" d="M512 402.752l233.344-233.408 45.312 45.248-233.408 233.408 233.408 233.344-45.248 45.312-233.408-233.408-233.344 233.408-45.248-45.312 233.344-233.344-233.344-233.344 45.248-45.312 233.344 233.408z" />
<glyph unicode="&#xe939;" glyph-name="close-all" d="M551.744 442.496l-45.248 45.248-90.496-90.496-90.496 90.496-45.248-45.248 90.496-90.496-90.496-90.496 45.248-45.248 90.496 90.496 90.496-90.496 45.248 45.248-90.496 90.496 90.496 90.496zM320 768l64 64h448l64-64v-448l-64-64h-128v-128l-64-64h-448l-64 64v448l64 64h128v128zM384 640h256l64-64v-256h128v448h-448v-128zM640 576h-448v-448h448v448z" />
<glyph unicode="&#xe93a;" glyph-name="cloud" d="M765.248 576h3.2c52.911-0.027 100.796-21.525 135.419-56.251l0.005-0.005c34.687-34.764 56.136-82.749 56.136-135.744s-21.449-100.98-56.139-135.747l0.003 0.003c-34.643-34.746-82.553-56.247-135.486-56.256h-0.002v0.832l-0.384-0.832h-478.528c-0.596-0.006-1.301-0.009-2.007-0.009-65.919 0-125.161 28.589-166.004 74.044l-0.182 0.205c-35.553 39.503-57.299 92.048-57.299 149.671 0 109.1 77.953 199.994 181.199 220.021l1.412 0.228c12.351 2.443 26.551 3.841 41.078 3.841 18.771 0 36.997-2.334 54.404-6.728l-1.53 0.327c35.324 79.429 113.539 133.811 204.456 133.811 10.435 0 20.703-0.716 30.757-2.103l-1.165 0.132c98.875-13.73 176.29-90.731 190.512-188.236l0.144-1.204zM320 256h448.64c70.426 0.073 127.489 57.18 127.489 127.616 0 0.135 0 0.27-0.001 0.405v-0.021c-0.072 70.573-57.191 127.782-127.723 128h-58.517l-7.872 54.848c-10.148 70.629-65.399 125.793-135.216 135.709l-0.848 0.099c-6.43 0.924-13.856 1.451-21.404 1.451-65.006 0-120.878-39.112-145.366-95.087l-0.398-1.020-21.312-48.768-51.776 12.096c-10.821 2.8-23.283 4.493-36.11 4.671l-0.114 0.001c-42.368 0-83.008-16.832-112.896-46.848-28.804-28.958-46.609-68.88-46.609-112.961 0-88.23 71.329-159.8 159.467-160.19h30.565z" />
<glyph unicode="&#xe93b;" glyph-name="cloud-download" d="M765.248 576h3.2c52.911-0.027 100.796-21.525 135.419-56.251l0.005-0.005c34.687-34.764 56.136-82.749 56.136-135.744s-21.449-100.98-56.139-135.747l0.003 0.003c-34.643-34.746-82.553-56.247-135.486-56.256h-0.002v64c68.256 3.148 122.402 59.251 122.402 128s-54.146 124.852-122.12 127.99l-0.282 0.010h-58.496l-7.872 54.848c-10.148 70.629-65.399 125.793-135.216 135.709l-0.848 0.099c-6.43 0.924-13.856 1.451-21.404 1.451-65.006 0-120.878-39.112-145.366-95.087l-0.398-1.020-21.312-48.768-51.776 12.096c-10.821 2.8-23.283 4.493-36.11 4.671l-0.114 0.001c-42.368 0-83.008-16.832-112.896-46.848-28.804-28.958-46.609-68.88-46.609-112.961 0-88.23 71.329-159.8 159.467-160.19h31.909v-64h-31.872c-0.596-0.006-1.301-0.009-2.007-0.009-65.919 0-125.161 28.589-166.004 74.044l-0.182 0.205c-35.553 39.503-57.299 92.048-57.299 149.671 0 109.1 77.953 199.994 181.199 220.021l1.412 0.228c12.351 2.443 26.551 3.841 41.078 3.841 18.771 0 36.997-2.334 54.404-6.728l-1.53 0.327c35.324 79.429 113.539 133.811 204.456 133.811 10.435 0 20.703-0.716 30.757-2.103l-1.165 0.132c98.875-13.73 176.29-90.731 190.512-188.236l0.144-1.204zM429.248 248.256l84.096-84.096v347.84h63.616v-345.6l81.792 81.856 45.248-45.248-137.344-137.408h-45.312l-137.344 137.344 45.248 45.312z" />
<glyph unicode="&#xe93c;" glyph-name="cloud-upload" d="M765.184 576h3.2c52.935-0.009 100.845-21.51 135.483-56.251l0.005-0.005c34.687-34.764 56.136-82.749 56.136-135.744s-21.449-100.98-56.139-135.747l0.003 0.003c-34.643-34.746-82.553-56.247-135.486-56.256h-127.682v64h127.68c68.256 3.148 122.402 59.251 122.402 128s-54.146 124.852-122.12 127.99l-0.282 0.010h-58.496l-7.872 54.848c-10.148 70.629-65.399 125.793-135.216 135.709l-0.848 0.099c-6.448 0.929-13.895 1.459-21.465 1.459-65.010 0-120.883-39.115-145.369-95.095l-0.398-1.020-21.312-48.768-51.776 12.096c-10.8 2.795-23.239 4.488-36.043 4.671l-0.117 0.001c-42.368 0-83.008-16.832-112.896-46.848-28.804-28.958-46.609-68.88-46.609-112.961 0-88.23 71.329-159.8 159.467-160.19h159.653v-64h-159.616c-0.596-0.006-1.301-0.009-2.007-0.009-65.919 0-125.161 28.589-166.004 74.044l-0.182 0.205c-35.593 39.514-57.366 92.087-57.366 149.746 0 42.467 11.811 82.176 32.327 116.020l-0.562-0.998c32.751 54.113 86.411 92.769 149.507 104.927l1.405 0.225c31.104 5.76 63.168 4.928 93.952-2.624 35.324 79.429 113.539 133.811 204.456 133.811 10.435 0 20.703-0.716 30.757-2.103l-1.165 0.132c98.83-13.75 176.206-90.713 190.447-188.171l0.145-1.205zM658.752 329.408l-84.096 84.032v-347.904h-63.616v345.6l-81.792-81.792-45.248 45.312 137.344 137.344h45.312l137.344-137.344-45.248-45.248z" />
<glyph unicode="&#xe93d;" glyph-name="code" d="M301.312 603.008l-169.408-169.344 169.408-169.344-45.312-45.312-192 192v45.312l192 192 45.312-45.312zM749.312 648.32l-45.312-45.312 169.408-169.344-169.408-169.344 45.312-45.312 192 192v45.312l-192 192zM314.112 128l57.216-28.672 320 640-57.216 28.672-320-640z" />
<glyph unicode="&#xe93e;" glyph-name="collapse-all" d="M576 384h-320v-64h320v64zM320 768l64 64h448l64-64v-448l-64-64h-128v-128l-64-64h-448l-64 64v448l64 64h128v128zM384 640h256l64-64v-256h128v448h-448v-128zM640 576h-448v-448h448v448z" />
<glyph unicode="&#xe93f;" glyph-name="color-mode" d="M512 896c-247.424 0-448-200.576-448-448s200.576-448 448-448v0c247.424 0 448 200.576 448 448s-200.576 448-448 448v0zM512 64v768c212.077 0 384-171.923 384-384s-171.923-384-384-384v0z" />
<glyph unicode="&#xe940;" glyph-name="combine" d="M96 896l-32-32v-192l32-32h192l32 32v192l-32 32h-192zM128 704v128h128v-128h-128zM96 576l-32-32v-192l32-32h192l32 32v192l-32 32h-192zM128 384v128h128v-128h-128zM64 224l32 32h192l32-32v-192l-32-32h-192l-32 32v192zM128 192v-128h128v128h-128zM800 640l-32-32v-384l32-32h192l32 32v384l-32 32h-192zM960 448h-128v128h128v-128zM960 256h-128v128h128v-128zM582.4 448h-198.4v-64h198.4l-64-64 44.8-38.4 115.2 115.2v44.8l-115.2 115.2-44.8-44.8 64-64z" />
<glyph unicode="&#xe941;" glyph-name="comment" d="M928 832h-832l-32-32v-576l32-32h160v-160l54.656-22.656 182.592 182.656h434.752l32 32v576l-32 32zM896 256h-416l-22.656-9.344-137.344-137.408v114.752l-32 32h-160v512h768v-512z" />
<glyph unicode="&#xe942;" glyph-name="comment-discussion" d="M256 237.44l64 64v-90.88l-73.6-72.96-54.4 22.4v160h-96l-32 32v512l32 32h768l32-32v-288h-64v256h-704v-448h96l32-32v-114.56zM658.56 128l119.040-118.4 54.4 22.4v96h96l32 32v320l-32 32h-512l-32-32v-320l32-32h242.56zM672 192h-224v256h448v-256h-96l-32-32v-50.56l-73.6 72.96-22.4 9.6z" />
<glyph unicode="&#xe943;" glyph-name="compass" d="M576.566 512.574l129.565-258.699-258.698 129.565-129.567 258.7 258.7-129.567zM603.866 356.141l-61.1 122.633-122.633 61.1 61.1-122.634 122.634-61.1zM894.688 416c-15.392-186.554-164.134-335.296-350.689-350.688v62.688h-64v-62.688c-187.37 15.462-336.596 165.44-350.879 353.141h62.88v64h-62.476c16.486 185.403 164.74 332.909 350.475 348.232v-62.685h64v62.685c186.554-15.39 335.297-164.132 350.689-350.685h-62.688v-64h62.688zM512 0c247.424 0 448 200.576 448 448s-200.576 448-448 448c-247.423 0-448-200.577-448-448s200.577-448 448-448z" />
<glyph unicode="&#xe944;" glyph-name="compass-active" d="M582.493 70.458c-12.625-2.342-25.468-4.070-38.494-5.146v62.688h-64v-62.688c-187.37 15.462-336.596 165.44-350.879 353.141h62.88v64h-62.476c16.486 185.403 164.74 332.909 350.475 348.232v-62.685h64v62.685c186.554-15.39 335.297-164.132 350.689-350.685h-62.688v-64h62.688c-1.075-13.027-2.803-25.868-5.146-38.493 21.421-4.92 41.811-12.526 60.806-22.445 6.323 29.983 9.651 61.073 9.651 92.939 0 247.423-200.576 448-448 448s-448-200.577-448-448c0-247.424 200.577-448 448-448 31.866 0 62.956 3.328 92.939 9.651-9.919 18.995-17.526 39.386-22.445 60.806zM633.836 290.080l-186.403 93.361-129.567 258.7 258.7-129.567 93.36-186.404c-13.197-10.804-25.286-22.893-36.090-36.090zM603.867 356.141l-61.1 122.633-122.634 61.1 61.1-122.634 122.634-61.1zM725.331 287.642c31.571 21.101 68.698 32.358 106.669 32.358 50.906-0.064 99.699-20.314 135.693-56.307s56.243-84.787 56.307-135.693c0-37.971-11.258-75.098-32.358-106.669-21.094-31.578-51.085-56.186-86.163-70.714-35.085-14.534-73.69-18.336-110.938-10.931-37.242 7.411-71.456 25.696-98.304 52.55-26.854 26.848-45.139 61.062-52.55 98.304-7.405 37.248-3.603 75.853 10.931 110.938 14.528 35.078 39.136 65.069 70.714 86.163zM834.016 43.354l114.547 152.723-51.2 38.4-94.739-126.31-56.032 44.826-39.981-49.971 81.818-65.453 45.587 5.786z" />
<glyph unicode="&#xe945;" glyph-name="compass-dot" d="M582.493 70.458c-12.625-2.342-25.468-4.070-38.494-5.146v62.688h-64v-62.688c-187.37 15.462-336.596 165.44-350.879 353.141h62.88v64h-62.476c16.486 185.403 164.74 332.909 350.475 348.232v-62.685h64v62.685c186.554-15.39 335.297-164.132 350.689-350.685h-62.688v-64h62.688c-1.075-13.027-2.803-25.868-5.146-38.493 21.421-4.92 41.811-12.526 60.806-22.445 6.323 29.983 9.651 61.073 9.651 92.939 0 247.423-200.576 448-448 448s-448-200.577-448-448c0-247.424 200.577-448 448-448 31.866 0 62.956 3.328 92.939 9.651-9.919 18.995-17.526 39.386-22.445 60.806zM633.836 290.080l-186.403 93.361-129.567 258.7 258.7-129.567 93.36-186.404c-13.197-10.804-25.286-22.893-36.090-36.090zM603.867 356.141l-61.1 122.633-122.634 61.1 61.1-122.634 122.634-61.1zM1024 128c0-106.039-85.961-192-192-192s-192 85.961-192 192c0 106.039 85.961 192 192 192s192-85.961 192-192z" />
<glyph unicode="&#xe946;" glyph-name="copy" d="M256 704l64 64h346.496l229.504-229.504v-474.496l-64-64h-512l-64 64v640zM832 512l-192 192h-320v-640h512v448zM192 896l-64-64v-640l64-64v704h410.496l-64 64h-346.496z" />
<glyph unicode="&#xe947;" glyph-name="credit-card" d="M896 640v-64h-768v64h768zM128 512h768v-320h-768v320zM896 704h-768c-35.346 0-64-28.654-64-64v0-448c0-35.346 28.654-64 64-64v0h768c35.346 0 64 28.654 64 64v0 448c0 35.346-28.654 64-64 64v0zM704 320h128v-64h-128v64z" />
<glyph unicode="&#xe948;" glyph-name="dash" d="M320 448h384v-64h-384z" />
<glyph unicode="&#xe949;" glyph-name="dashboard" d="M248.896 825.92c64.919 43.91 144.954 70.096 231.104 70.096 229.76 0 416.016-186.257 416.016-416.016 0-143.609-72.766-270.223-183.44-344.982l-1.473-0.938c-64.913-43.896-144.935-70.073-231.072-70.073-229.764 0-416.025 186.261-416.025 416.025 0 143.628 72.784 270.256 183.479 345.014l1.474 0.938zM284.416 187.328c54.935-37.164 122.664-59.328 195.569-59.328 0.005 0 0.011 0 0.016 0h-0.001c194.316 0.218 351.782 157.684 352 351.979v0.021c-0.006 194.4-157.599 351.99-352 351.99-194.404 0-352-157.596-352-352 0-121.493 61.551-228.61 155.171-291.869l1.245-0.793zM658.816 704l45.184-45.248-137.6-137.6c6.057-12.291 9.599-26.756 9.599-42.049 0-53.514-43.382-96.896-96.896-96.896s-96.896 43.382-96.896 96.896c0 53.514 43.382 96.896 96.896 96.896 15.293 0 29.758-3.543 42.619-9.852l-0.571 0.253 137.6 137.6zM462.144 453.376c4.998-3.381 11.159-5.398 17.792-5.398 17.685 0 32.022 14.337 32.022 32.022 0 11.052-5.6 20.797-14.116 26.552l-0.113 0.072c-4.998 3.381-11.159 5.398-17.792 5.398-17.685 0-32.022-14.337-32.022-32.022 0-11.052 5.6-20.797 14.116-26.552l0.113-0.072zM736.448 610.112l-48.832-48.832c10.624-25.792 16.192-53.376 16.32-81.28-0.195-42.055-12.073-81.296-32.551-114.694l0.551 0.966 47.040-47.040c30.703 44.951 49.027 100.479 49.027 160.287 0 47.676-11.644 92.632-32.244 132.18l0.752-1.587h-0.064zM558.912 688.512c-23.347 9.627-50.441 15.299-78.837 15.488h-0.075c-123.712 0-224-100.288-224-224v0c0.184-42.056 12.064-81.299 32.55-114.693l-0.55 0.965-46.976-47.040c-30.563 45.029-48.795 100.58-48.795 160.39 0 159.058 128.942 288 288 288 46.546 0 90.512-11.042 129.424-30.649l-1.652 0.755-49.088-49.216z" />
<glyph unicode="&#xe94a;" glyph-name="database" d="M832 736c0 88.384-143.296 160-320 160s-320-71.616-320-160c0-2.56 1.28-4.928 1.536-7.488h-1.536v-567.808l3.584-22.848c17.92-77.44 151.872-137.856 316.416-137.856s298.496 60.416 316.416 137.856l3.584 22.848v567.808h-1.536c0.256 2.56 1.536 4.928 1.536 7.488zM512 829.952c156.288 0 256-61.696 256-93.952s-99.712-93.952-256-93.952-256 61.952-256 93.952 99.712 93.952 256 93.952zM768 160.64l-1.92-8.384c-7.36-31.68-98.496-88.256-254.080-88.256s-246.72 56.576-254.080 88.256l-1.92 8.384v480c68.611-40.805 151.278-64.924 239.578-64.924 5.775 0 11.526 0.103 17.251 0.308l-0.829-0.024c4.773-0.172 10.379-0.27 16.009-0.27 88.468 0 171.281 24.211 242.175 66.369l-2.185-1.203v-480.256z" />
<glyph unicode="&#xe94b;" glyph-name="debug" d="M147.755 411.307v0zM457.685 381.867l-129.451 130.091 43.264 43.264 136.917-137.6 134.955 134.955 43.264-43.264-129.451-129.451 129.451-130.133-43.264-43.264-136.917 137.6-134.955-134.997-43.264 43.264 129.451 129.451zM722.475 746.539v-42.539h57.387l121.301 121.259 43.264-43.264-114.859-114.816 1.408-3.627c23.91-61.494 37.765-132.672 37.765-207.087 0-0.876-0.002-1.751-0.006-2.626v0.135c0-14.293-0.469-28.459-1.451-42.453l-0.213-3.2h151.040v-61.184h-158.72l-0.427-2.475c-12.928-70.528-38.016-134.827-72.192-188.971l-2.56-4.011 146.048-146.773-43.392-43.179-139.691 140.373-4.224-4.693c-63.104-70.571-144.853-112.896-233.941-112.896-90.453 0-173.355 43.648-236.885 116.181l-4.181 4.821-136.917-136.875-43.264 43.264 143.616 143.573-2.517 4.053c-32.939 53.333-57.173 116.267-69.803 185.173l-0.427 2.432h-158.635v61.184h150.955l-0.213 3.2c-0.924 12.55-1.451 27.188-1.451 41.949 0 0.177 0 0.355 0 0.532v-0.027c0 74.368 13.227 144.64 36.821 207.104l1.365 3.584-117.845 118.443 43.435 43.136 121.6-122.24h60.885v42.539c0 117.891 95.57 213.461 213.461 213.461s213.461-95.57 213.461-213.461v0zM356.736 746.539v-42.539h304.597v42.539c0 84.1-68.177 152.277-152.277 152.277s-152.277-68.177-152.277-152.277v0zM774.869 638.933l-1.451 3.84h-528.811l-1.451-3.84c-20.701-54.251-32.688-116.993-32.688-182.535 0-0.852 0.002-1.704 0.006-2.556v0.131c0-117.76 36.779-221.909 93.184-295.253 56.32-73.216 129.536-113.024 205.355-113.024s148.992 39.808 205.355 113.067c56.405 73.301 93.184 177.493 93.184 295.211 0 67.157-11.947 129.877-32.683 184.96z" />
<glyph unicode="&#xe94c;" glyph-name="debug-all" d="M466.773 383.596l-56.32-56.269c-8.566 34.454-28.426 65.054-56.417 86.923s-62.502 33.75-98.036 33.75c-35.533 0-70.045-11.881-98.036-33.75s-47.852-52.468-56.417-86.923l-56.32 56.269-45.227-45.186 73.387-73.322-9.387-9.376v-63.942h-64v-63.942h64v-3.411c3.264-20.832 9.141-41.171 17.493-60.531l-81.493-82.701 45.227-45.184 70.4 70.336c16.749-21.35 38.023-38.733 62.294-50.893s50.935-18.803 78.079-19.443c27.144 0.64 53.809 7.283 78.079 19.443s45.544 29.542 62.294 50.893l70.4-70.336 45.227 45.184-81.493 82.701c8.456 19.77 14.335 40.544 17.493 61.811v4.262h64v61.811h-64v63.942l-9.387 9.376 73.387 73.322-45.227 45.186zM256 383.596c25.46 0 49.879-10.106 67.882-28.093s28.118-42.383 28.118-67.823h-192c0 25.44 10.115 49.836 28.118 67.823s42.422 28.093 67.882 28.093zM384 127.827c-3.126-32.858-17.615-63.603-40.977-86.944s-54.134-37.818-87.023-40.941c-32.89 3.123-63.662 17.6-87.023 40.941s-37.851 54.086-40.977 86.944v95.91h256v-95.91zM241.889 832l-49.92-26.24v-293.76h64v233.6l486.399-324.48-166.368-110.765v-76.736l241.888 161.261v53.12l-575.999 384zM576 105.619v76.896l358.368 238.601-486.399 324.48v77.013l561.919-374.613v-53.12l-433.888-289.257z" />
<glyph unicode="&#xe94d;" glyph-name="debug-alt" d="M466.773 384l-56.32-56.32c-17.794 69.905-80.182 120.782-154.453 120.782s-136.66-50.877-154.215-119.681l-0.238-1.102-56.32 56.32-45.227-45.227 73.387-73.387-9.387-9.387v-64h-64v-64h64v-3.413c3.285-20.864 9.131-41.216 17.493-60.587l-81.493-82.773 45.227-45.227 70.4 70.4c33.084-41.954 83.433-69.020 140.15-70.396l0.224-0.004c56.938 1.392 107.283 28.456 140.077 70.011l0.296 0.389 70.4-70.4 45.227 45.227-81.493 82.773c8.448 19.797 14.336 40.576 17.493 61.867v4.267h64v61.867h-64v64l-9.387 9.387 73.387 73.387-45.227 45.227zM256 384c53.019 0 96-42.981 96-96v0h-192c0 53.019 42.981 96 96 96v0zM384 128c-6.639-67.854-60.146-121.361-127.415-127.954l-0.585-0.046c-67.854 6.639-121.361 60.146-127.954 127.415l-0.046 0.585v96h256v-96zM1013.76 550.4v-53.76l-437.76-277.76v75.52l362.667 229.12-554.667 351.147v-403.627c-18.333 13.028-39.609 23.517-62.469 30.328l-1.531 0.392v431.36l48.64 26.88 645.12-409.6z" />
<glyph unicode="&#xe94e;" glyph-name="debug-alt-small" d="M466.752 383.616l-56.32-56.32c-17.756 69.856-80.090 120.704-154.3 120.704-0.046 0-0.092 0-0.139 0h0.007c-74.231-0.033-136.583-50.856-154.192-119.601l-0.24-1.103-56.32 56.32-45.248-45.184 73.408-73.344-9.408-9.344v-64h-64v-63.936h64v-3.392c3.264-20.864 9.152-41.152 17.472-60.544l-81.472-82.688 45.248-45.184 70.4 70.336c33.095-41.917 83.431-68.957 140.128-70.332l0.224-0.004c56.917 1.399 107.246 28.433 140.057 69.949l0.295 0.387 70.4-70.336 45.248 45.184-81.472 82.688c7.882 17.898 13.983 38.706 17.297 60.43l0.175 1.394v4.288h64v61.76h-64v64l-9.408 9.344 73.408 73.344-45.248 45.184zM256 383.616c52.997 0 95.964-42.944 96-95.932v-0.004h-192c0 0.019 0 0.042 0 0.064 0 52.949 42.923 95.872 95.872 95.872 0.045 0 0.090 0 0.135 0h-0.007zM384 127.808c-6.652-67.807-60.17-121.259-127.422-127.763l-0.578-0.045c-67.816 6.629-121.302 60.072-127.953 127.283l-0.047 0.589v95.936h256v-95.936zM320 805.76l49.92 26.24 576-384v-53.12l-369.92-246.592v76.8l294.4 196.032-486.4 324.48v-233.6h-64v293.76z" />
<glyph unicode="&#xe94f;" glyph-name="debug-breakpoint-conditional" d="M512 704c-141.385 0-256-114.615-256-256s114.615-256 256-256v0c141.385 0 256 114.615 256 256s-114.615 256-256 256v0zM640 384v-64h-256v64h256zM640 576v-64h-256v64h256z" />
<glyph unicode="&#xe950;" glyph-name="debug-breakpoint-conditional-unverified" d="M369.792 660.864c40.186 27.48 89.84 43.882 143.324 43.882 141.385 0 256-114.615 256-256 0-88.844-45.258-167.118-113.977-213.024l-0.931-0.585c-39.708-26.562-88.551-42.39-141.092-42.39-141.385 0-256 114.615-256 256 0 87.9 44.301 165.454 111.795 211.55l0.881 0.568zM414.208 301.696c27.961-19.559 62.676-31.254 100.123-31.254 97.202 0 176 78.798 176 176 0 61.727-31.777 116.032-79.865 147.449l-0.674 0.413c-26.962 17.642-59.986 28.138-95.461 28.138-97.202 0-176-78.798-176-176 0-59.755 29.779-112.555 75.307-144.368l0.57-0.377zM608 544h-192v-64h192v64zM608 416h-192v-64h192v64z" />
<glyph unicode="&#xe951;" glyph-name="debug-breakpoint-data" d="M783.232 448l-147.84-256h-295.552l-147.84 256 147.84 256h295.552l147.84-256z" />
<glyph unicode="&#xe952;" glyph-name="debug-breakpoint-data-unverified" d="M635.584 704h-295.68l-147.84-256 147.84-256h295.68l147.84 256-147.84 256zM587.584 275.2h-199.68l-99.84 172.8 99.84 172.8h199.68l99.84-172.8-99.84-172.8z" />
<glyph unicode="&#xe953;" glyph-name="debug-breakpoint-function" d="M512 704l256-441.92h-512l256 441.92z" />
<glyph unicode="&#xe954;" glyph-name="debug-breakpoint-function-unverified" d="M256 256l256 448 256-448h-512zM393.856 336h236.288l-118.144 206.72-118.144-206.72z" />
<glyph unicode="&#xe955;" glyph-name="debug-breakpoint-log" d="M512 768l320-320-320-320-320 320 320 320z" />
<glyph unicode="&#xe956;" glyph-name="debug-breakpoint-log-unverified" d="M193.28 449.28l318.72 318.72 318.72-318.72-318.72-318.72-318.72 318.72zM512 270.72l178.56 178.56-178.56 178.56-178.56-178.56 178.56-178.56z" />
<glyph unicode="&#xe957;" glyph-name="debug-breakpoint-unsupported" d="M724.864 305.792c27.016 39.949 43.127 89.197 43.127 142.208 0 141.398-114.625 256.023-256.023 256.023-88.387 0-166.312-44.789-212.319-112.908l-0.577-0.907c-27.016-39.949-43.127-89.197-43.127-142.208 0-141.398 114.625-256.023 256.023-256.023 88.387 0 166.312 44.789 212.319 112.908l0.577 0.907zM553.6 320h-80v-64h80v64zM473.6 384v256h80v-256h-80z" />
<glyph unicode="&#xe958;" glyph-name="debug-console" d="M300.373 901.931l5.931 2.432h603.349l5.973-2.432 50.261-50.304 2.432-5.931v-603.349l-2.432-5.973-50.304-50.261-5.931-2.432h-312.32v8.32c0 0.046 0 0.1 0 0.153 0 22.697-8.906 43.315-23.414 58.548l0.033-0.035h327.381v586.667h-586.667v-310.699c-17.612 4.537-37.83 7.141-58.656 7.141-2.944 0-5.877-0.052-8.796-0.155l0.423 0.012v312.064l2.432 5.973 50.304 50.219zM707.029 498.645l-119.851-119.467c-4.157 7.628-9.094 14.184-14.846 19.924l-0.002 0.002-17.877 17.92 95.403 95.36-153.856 157.611 34.688 35.541 176.341-176.341v-30.549zM410.453 327.68l56.32 56.32 45.227-45.227-73.387-73.387 9.387-9.387v-64h64v-61.867h-64v-4.267c-3.497-23.135-9.605-43.957-18.123-63.486l0.629 1.619 81.493-82.773-45.227-45.227-70.4 70.4c-33.084-41.954-83.433-69.020-140.15-70.396l-0.224-0.004c-56.938 1.392-107.283 28.456-140.077 70.011l-0.296 0.389-70.4-70.4-45.227 45.227 81.493 82.773c-7.778 17.512-13.874 37.883-17.302 59.146l-0.191 1.44v3.413h-64v64h64v64l9.387 9.387-73.387 73.387 45.227 45.227 56.32-56.32c17.794 69.905 80.182 120.782 154.453 120.782s136.66-50.877 154.215-119.681l0.238-1.102zM323.883 355.883c-17.373 17.373-41.373 28.118-67.883 28.118-53.019 0-96-42.981-96-96 0 0 0 0 0-0.001v0h192c0 0 0 0.001 0 0.001 0 26.509-10.745 50.509-28.117 67.882v0zM343.040 41.003c22.598 22.605 37.616 52.789 40.914 86.412l0.046 0.585v96h-256v-96c6.639-67.854 60.146-121.361 127.415-127.954l0.585-0.046c34.224 3.334 64.424 18.353 87.040 40.96v0z" />
<glyph unicode="&#xe959;" glyph-name="debug-continue" d="M160 832h96v-768h-96v768zM475.904 807.040l-75.904-39.040v-640l75.904-39.040 448 320v78.080l-448 320zM813.44 448l-317.44-226.752v453.504l317.44-226.752z" />
<glyph unicode="&#xe95a;" glyph-name="debug-continue-small" d="M256 832h-64v-768h64v768zM466.6 794.039l-50.6-26.040v-639.999l50.6-26.042 447.999 320.002v52.079l-447.999 320zM840.947 447.999l-360.947-257.817v515.635l360.947-257.818z" />
<glyph unicode="&#xe95b;" glyph-name="debug-coverage" d="M320 805.76l49.92 26.24 576-384v-53.12l-369.92-246.611v76.845l294.4 196.006-486.4 324.48v-233.6h-64v293.76zM392.346 184.090c-11.677-11.494-20.649-24.282-26.953-38.374-6.138-14.048-9.223-29.299-9.223-45.805v-55.155c0-6.182-1.166-12.026-3.52-17.498-2.327-5.414-5.523-10.157-9.587-14.208s-8.823-7.232-14.248-9.549c-5.485-2.342-11.344-3.501-17.541-3.501h-55.351c-6.197 0-12.056 1.158-17.541 3.501-5.425 2.317-10.184 5.498-14.248 9.549s-7.26 8.794-9.587 14.208c-2.354 5.472-3.52 11.315-3.52 17.498v55.155c0 16.499-3.155 31.75-9.434 45.792-6.158 14.086-15.067 26.899-26.742 38.387-14.985 14.784-26.555 31.296-34.665 49.51-8.135 18.278-12.186 38.067-12.186 59.341 0 14.227 1.841 27.964 5.53 41.199 3.681 13.201 8.911 25.54 15.696 37.004 6.776 11.594 14.882 22.093 24.314 31.49 9.427 9.394 19.888 17.468 31.377 24.219 11.642 6.755 24.106 11.973 37.35 15.639 13.277 3.674 27.058 5.508 41.332 5.508s28.055-1.834 41.332-5.508c13.244-3.666 25.623-8.876 37.126-15.635 11.633-6.75 22.169-14.825 31.601-24.223 9.431-9.397 17.537-19.896 24.312-31.489 6.785-11.464 12.016-23.803 15.697-37.005 3.69-13.235 5.53-26.972 5.53-41.199 0-21.274-4.051-41.062-12.186-59.341-8.111-18.214-19.68-34.726-34.666-49.51zM321.73 120.614h-76.262v-75.859c0-2.79 0.983-5.165 3.108-7.283 2.127-2.118 4.521-3.11 7.347-3.11h55.351c2.826 0 5.22 0.992 7.347 3.11s3.109 4.493 3.109 7.283v75.859z" />
<glyph unicode="&#xe95c;" glyph-name="debug-disconnect" d="M871.488 713.984c-6.869 21.248-16.693 39.696-29.187 55.99l0.323-0.438 86.656 87.040-39.424 39.424-87.040-86.656c-15.857 12.186-34.303 22.030-54.25 28.559l-1.302 0.369c-18.51 6.362-39.837 10.036-62.023 10.036-27.031 0-52.788-5.453-76.231-15.319l1.294 0.483c-24.691-10.368-45.761-24.727-63.414-42.486l-0.010-0.010-98.88-99.264 276.928-276.992 99.328 98.88c18.368 18.368 32.512 39.552 42.432 63.488 9.38 22.15 14.832 47.908 14.832 74.939 0 22.185-3.672 43.512-10.441 63.406l0.41-1.386zM814.592 598.528c-7.341-17.565-17.529-32.555-30.139-45.116l-0.005-0.004-59.52-59.52-197.76 197.76 59.52 59.52c12.545 12.633 27.513 22.841 44.152 29.869l0.904 0.339c15.789 6.907 34.189 10.927 53.528 10.927 19.737 0 38.496-4.187 55.438-11.72l-0.87 0.345c16.896-7.296 31.616-17.344 44.16-30.208 12.8-12.48 22.912-27.264 30.208-44.16 7.18-16.063 11.361-34.811 11.361-54.536 0-19.326-4.014-37.715-11.254-54.378l0.341 0.882zM505.856 278.912l94.976 98.88-39.424 39.808-95.36-99.264-119.040 118.976 95.424 99.328-39.808 39.36-94.912-98.88-39.424 39.36-99.264-98.88c-17.829-17.759-32.184-38.991-41.964-62.598l-0.468-1.274c-9.43-22-14.912-47.601-14.912-74.484 0-0.117 0-0.234 0-0.35v0.018c0-21.248 3.2-41.984 9.6-62.080 6.72-19.84 16.512-38.208 29.376-55.168l-86.656-87.040 39.36-39.36 87.040 86.592c16.96-12.8 35.328-22.592 55.168-29.312 20.096-6.4 40.832-9.6 62.080-9.6 25.984 0 50.944 4.928 74.88 14.848 24.192 9.92 45.44 24.064 63.872 42.432l98.88 99.328-39.424 39.36zM361.088 149.44c-15.615-6.638-33.776-10.497-52.84-10.497-0.189 0-0.377 0-0.565 0.001h0.029c-19.264 0-37.504 3.648-54.72 10.88-17.284 7.502-32.067 17.548-44.634 29.849l0.026-0.025c-12.249 12.545-22.274 27.327-29.395 43.667l-0.365 0.941c-6.88 15.896-10.882 34.407-10.882 53.852 0 0.283 0.001 0.565 0.003 0.847v-0.043c-0.001 0.159-0.001 0.346-0.001 0.534 0 38.471 15.715 73.272 41.076 98.333l0.014 0.013 59.52 59.52 197.76-197.76-59.52-59.52c-12.707-12.723-27.811-23.048-44.579-30.239l-0.925-0.353z" />
<glyph unicode="&#xe95d;" glyph-name="debug-line-by-line" d="M384 320v64h576v-64h-576zM640 576h320v-64h-320v64zM960 768v-64h-576v64h576zM384 192v-64h576v64h-576zM64 781.12l50.112 26.816 343.744-229.184v-53.632l-343.744-229.184-50.112 26.816v458.368zM128.448 720.96v-337.984l253.44 168.96-253.44 168.96z" />
<glyph unicode="&#xe95e;" glyph-name="debug-pause" d="M288 768h96v-640h-96v640zM736 768v-640h-96v640h96z" />
<glyph unicode="&#xe95f;" glyph-name="debug-rerun" d="M458.688 192c0-0.026 0-0.057 0-0.087 0-106.039-85.961-192-192-192-77.727 0-144.666 46.186-174.87 112.612l-0.49 1.204-59.392-24.064c40.495-91.278 130.324-153.791 234.753-153.791 141.42 0 256.064 114.644 256.064 256.064s-114.644 256.064-256.064 256.064c-82.23 0-155.407-38.76-202.258-99.008l-0.432-0.577v78.272h-64v-170.688l32-32h149.312v64h-80.96c33.802 57.853 95.602 96.103 166.336 96.103 106.039 0 192-85.961 192-192 0-0.036 0-0.072 0-0.108v0.006zM320 805.76l49.92 26.24 576-384v-53.12l-305.92-203.968v76.8l230.4 153.408-486.4 324.48v-233.6h-64v293.76z" />
<glyph unicode="&#xe960;" glyph-name="debug-restart" d="M816 448c0-0.029 0-0.064 0-0.099 0-159.058-128.942-288-288-288-116.59 0-216.999 69.28-262.305 168.917l-0.735 1.805-89.024-36.16c60.788-136.78 195.457-230.437 352-230.437 212.081 0 384.012 171.899 384.064 383.968v0.006c0 0.005 0 0.012 0 0.018 0 212.077-171.923 384-384 384-123.338 0-233.095-58.149-303.352-148.527l-0.648-0.867v117.376h-96v-256l48-48h224v96h-121.472c50.71 86.748 143.393 144.098 249.472 144.098 159.058 0 288-128.942 288-288 0-0.034 0-0.069 0-0.103v0.005z" />
<glyph unicode="&#xe961;" glyph-name="debug-restart-frame" d="M64 320v64h333.248c-5.47-18.476-9.653-40.239-11.736-62.612l-0.104-1.388h-321.408zM464.448 512c20.158 24.279 42.876 45.371 68.029 63.263l1.091 0.737h-469.568v-64h400.448zM422.4 128c-9.539 18.153-18.103 39.388-24.537 61.529l-0.615 2.471h-333.248v-64h358.4zM960 768v-64h-896v64h896zM744.96 126.016c89.451 0.014 161.96 72.531 161.96 161.984 0 89.461-72.523 161.984-161.984 161.984-59.628 0-111.731-32.218-139.85-80.196l-0.414-0.764h68.352v-54.016h-126.080l-26.944 27.008v144h54.016v-66.048c39.886 51.275 101.594 83.947 170.932 83.947 119.294 0 216-96.706 216-216s-96.706-216-216-216c-88.074 0-163.836 52.713-197.458 128.31l-0.546 1.375 50.048 20.352c25.919-57.046 82.399-96 147.977-96 0.019 0 0.039 0 0.058 0h-0.003z" />
<glyph unicode="&#xe962;" glyph-name="debug-reverse-continue" d="M864 832h-96v-768h96v768zM548.096 807.040l75.904-39.040v-640l-75.904-39.040-448 320v78.080l448 320zM210.56 448l317.44-226.752v453.504l-317.44-226.752z" />
<glyph unicode="&#xe963;" glyph-name="debug-stackframe" d="M928 502.4l-272.64 303.36-59.52 26.24h-323.84l-80-80v-606.72l80-80h323.84l59.52 26.88 272.64 303.36v106.88zM595.84 145.28h-323.84v606.72h323.84l272.64-302.72-272.64-304z" />
<glyph unicode="&#xe964;" glyph-name="debug-stackframe-active" d="M640 448c0-70.692-57.308-128-128-128s-128 57.308-128 128v0c0 70.692 57.308 128 128 128s128-57.308 128-128v0zM928 502.4l-272.64 303.36-59.52 26.24h-323.84l-80-80v-606.72l80-80h323.84l59.52 26.88 272.64 303.36v106.88zM595.84 145.28h-323.84v606.72h323.84l272.64-302.72-272.64-304z" />
<glyph unicode="&#xe965;" glyph-name="debug-stackframe-dot" d="M640 448c0-70.692-57.308-128-128-128s-128 57.308-128 128v0c0 70.692 57.308 128 128 128s128-57.308 128-128v0z" />
<glyph unicode="&#xe966;" glyph-name="debug-start" d="M272 768l74.624 39.936 512-341.312v-79.872l-512-341.376-74.624 39.936v682.688zM368 678.336v-503.296l377.472 251.648-377.472 251.648z" />
<glyph unicode="&#xe967;" glyph-name="debug-step-back" d="M112 592v256h96v-162.688c73.28 86.976 186.304 141.376 309.76 141.376 203.328 0 378.88-147.648 394.24-345.472l1.28-17.216h-96l-1.408 14.464c-13.568 140.48-140.928 252.16-297.984 252.16-111.104 0-207.616-56-259.2-138.624h181.12v-96h-266.56l-61.504 62.4v33.6h0.192zM512 64c-70.692 0-128 57.308-128 128s57.308 128 128 128v0c70.692 0 128-57.308 128-128s-57.308-128-128-128v0z" />
<glyph unicode="&#xe968;" glyph-name="debug-step-into" d="M512 349.952h34.688l249.92 249.92-67.904 67.84-168.768-167.040v395.328h-95.872v-395.328l-168.768 167.040-67.904-67.84 249.92-249.92h34.688zM637.184 127.168c0-70.692-57.308-128-128-128s-128 57.308-128 128v0c0 70.692 57.308 128 128 128s128-57.308 128-128v0z" />
<glyph unicode="&#xe969;" glyph-name="debug-step-out" d="M512 896h-34.688l-249.92-249.92 67.904-67.84 168.768 167.040v-395.328h95.872v395.328l168.768-167.040 67.904 67.84-249.92 249.92h-34.688zM637.184 127.168c0-70.692-57.308-128-128-128s-128 57.308-128 128v0c0 70.692 57.308 128 128 128s128-57.308 128-128v0z" />
<glyph unicode="&#xe96a;" glyph-name="debug-step-over" d="M912 592v256h-96v-162.688c-73.28 86.976-186.304 141.376-309.76 141.376-203.328 0-378.88-147.648-394.24-345.472l-1.28-17.216h96.064l1.408 14.464c13.568 140.48 140.928 252.16 297.984 252.16 111.104 0 207.616-56 259.2-138.624h-181.12v-96h266.432l61.568 62.4v33.6h-0.256zM512 64c70.692 0 128 57.308 128 128s-57.308 128-128 128v0c-70.692 0-128-57.308-128-128s57.308-128 128-128v0z" />
<glyph unicode="&#xe96b;" glyph-name="debug-stop" d="M128 832v-768h768v768h-768zM816 144h-608v608h608v-608z" />
<glyph unicode="&#xe96c;" glyph-name="desktop-download" d="M256 0v64c128 0 128 38.4 128 64h-288l-32 32v640l32 32h832l32-32v-591.36l-64 64v495.36h-768v-576h366.72l-32-32 160-160h-366.72zM759.040 0l160 160-45.44 44.8-105.6-105.6v412.8h-64v-412.16l-104.96 105.6-45.44-45.44 160-160h45.44z" />
<glyph unicode="&#xe96d;" glyph-name="device-camera" d="M685.248 768h242.752l32-32v-576l-32-32h-832l-32 32v576l32 32h242.752l54.592 54.656 22.656 9.344h192l22.656-9.344 54.592-54.656zM128 192h768v512h-224l-22.656 9.344-54.592 54.656h-165.504l-54.592-54.656-22.656-9.344h-224v-512zM224 640c-17.673 0-32-14.327-32-32s14.327-32 32-32v0c17.673 0 32 14.327 32 32s-14.327 32-32 32v0zM512 576c70.692 0 128-57.308 128-128s-57.308-128-128-128v0c-70.692 0-128 57.308-128 128s57.308 128 128 128v0zM512 640c-106.039 0-192-85.961-192-192s85.961-192 192-192v0c106.039 0 192 85.961 192 192s-85.961 192-192 192v0z" />
<glyph unicode="&#xe96e;" glyph-name="device-camera-video" d="M912 656.64l-208-120.32v135.68l-32 32h-576l-32-32v-448l32-32h576l32 32v128l208-119.68 48 30.080v366.080l-48 28.16zM640 256h-512v384h512v-384zM896 320l-192 108.8v33.28l192 113.92v-256z" />
<glyph unicode="&#xe96f;" glyph-name="device-mobile" d="M288 896h512l32-32v-832l-32-32h-512l-32 32v832l32 32zM320 64h448v768h-448v-768zM480 192h128v-64h-128v64z" />
<glyph unicode="&#xe970;" glyph-name="diff" d="M128 736l32 32h320l32-32v-576l-32-32h-320l-32 32v576zM192 192h256v384h-256v-384zM192 640h256v64h-256v-64zM608 768h320l32-32v-576l-32-32h-320l-32 32v576l32 32zM640 192h256v128h-256v-128zM640 448h256v256h-256v-256z" />
<glyph unicode="&#xe971;" glyph-name="diff-added" d="M96 896h768l32-32v-768l-32-32h-768l-32 32v768l32 32zM128 128h704v704h-704v-704zM512 704h-64v-192h-192v-64h192v-192h64v192h192v64h-192v192z" />
<glyph unicode="&#xe972;" glyph-name="diff-ignored" d="M96 896h832l32-32v-832l-32-32h-832l-32 32v832l32 32zM128 64h768v768h-768v-768zM640 704h128v-128l-384-384h-128v128l384 384z" />
<glyph unicode="&#xe973;" glyph-name="diff-modified" d="M96 896h832l32-32v-832l-32-32h-832l-32 32v832l32 32zM128 832v-768h768v768h-768zM512 256c106.039 0 192 85.961 192 192s-85.961 192-192 192v0c-106.039 0-192-85.961-192-192s85.961-192 192-192v0z" />
<glyph unicode="&#xe974;" glyph-name="diff-removed" d="M640 512v-64h-320v64h320zM96 896h768l32-32v-768l-32-32h-768l-32 32v768l32 32zM128 128h704v704h-704v-704z" />
<glyph unicode="&#xe975;" glyph-name="diff-renamed" d="M96 896h832l32-32v-832l-32-32h-832l-32 32v832l32 32zM128 64h768v768h-768v-768zM256 384h192v-192l320 256-320 256v-192h-192v-128z" />
<glyph unicode="&#xe976;" glyph-name="discard" d="M224 832v-224l32-32h224v64h-161.344l60.224 60.224c41.301 42.168 98.824 68.309 162.453 68.309 125.55 0 227.328-101.778 227.328-227.328 0-63.629-26.141-121.152-68.27-162.415l-0.039-0.038-332.608-332.672 46.080-46.080 332.672 332.672c52.923 52.931 85.657 126.051 85.657 206.816 0 161.546-130.959 292.505-292.505 292.505-80.781 0-153.913-32.746-206.848-85.688l-44.8-44.8v130.496h-64z" />
<glyph unicode="&#xe977;" glyph-name="edit" d="M846.72 896h-93.44l-528-528-10.24-14.080-151.040-263.68 90.24-90.24 263.68 151.040 14.080 10.24 528 528v93.44l-113.28 113.28zM154.24 90.24l96.64 192 92.8-92.8-189.44-99.2zM399.36 222.080l-113.28 113.28 512 512 113.28-113.28-512-512z" />
<glyph unicode="&#xe978;" glyph-name="editor-layout" d="M960 544l-30.080 32h-481.92v289.92l-30.080 30.080h-323.84l-30.080-30.080v-515.84l30.080-30.080h161.92v-289.92l30.080-30.080h643.84l30.080 30.080v513.92zM128 384v384h256v-384h-256zM896 64h-576v256h97.92l30.080 30.080v97.088h448v-383.168z" />
<glyph unicode="&#xe979;" glyph-name="ellipsis" d="M256 448c0-35.346-28.654-64-64-64s-64 28.654-64 64v0c0 35.346 28.654 64 64 64s64-28.654 64-64v0zM576 448c0-35.346-28.654-64-64-64s-64 28.654-64 64v0c0 35.346 28.654 64 64 64s64-28.654 64-64v0zM896 448c0-35.346-28.654-64-64-64s-64 28.654-64 64v0c0 35.346 28.654 64 64 64s64-28.654 64-64v0z" />
<glyph unicode="&#xe97a;" glyph-name="empty-window" d="M256 704h192v-64h-192v-192h-64v192h-192v64h192v192h64v-192zM64 32v352h64v-320h768v448h-384v64h384v128h-384v64h416l32-32v-704l-32-32h-832l-32 32z" />
<glyph unicode="&#xe97b;" glyph-name="error" d="M550.4 896c102.4-6.4 198.4-57.6 268.8-128 83.2-89.6 128-198.4 128-326.4 0-102.4-38.4-198.4-102.4-281.6-64-76.8-153.6-134.4-256-153.6s-204.8-6.4-294.4 44.8c-89.6 51.2-160 128-198.4 224s-44.8 204.8-12.8 300.8c32 102.4 89.6 185.6 179.2 243.2 83.2 57.6 185.6 83.2 288 76.8zM582.4 70.4c83.2 19.2 160 64 217.6 134.4 51.2 70.4 83.2 153.6 76.8 243.2 0 102.4-38.4 204.8-108.8 275.2-64 64-140.8 102.4-230.4 108.8-83.2 6.4-172.8-12.8-243.2-64s-121.6-121.6-147.2-211.2c-25.6-83.2-25.6-172.8 12.8-256s96-147.2 172.8-192c76.8-44.8 166.4-57.6 249.6-38.4zM505.6 480l153.6 160 44.8-44.8-153.6-160 153.6-160-44.8-44.8-153.6 160-153.6-160-44.8 44.8 153.6 160-153.6 160 44.8 44.8 153.6-160z" />
<glyph unicode="&#xe97c;" glyph-name="error-small" d="M587.327 313.274l-75.311 75.312-75.314-75.312-59.406 59.403 75.315 75.315-75.315 75.315 59.406 59.405 75.314-75.315 75.311 75.311 59.405-59.406-75.31-75.31 75.31-75.311-59.405-59.407zM768.013 448c0-141.382-114.611-256-255.997-256-141.384 0-256 114.618-256 256 0 141.385 114.616 256 256 256 141.386 0 255.997-114.615 255.997-256zM704.013 448c0 106.038-85.958 192-191.997 192s-192-85.962-192-192c0-106.038 85.962-192 192-192s191.997 85.962 191.997 192z" />
<glyph unicode="&#xe97d;" glyph-name="exclude" d="M602.368 896h-180.736l-30.976-155.072-131.584 87.68-127.744-127.68 87.68-131.584-155.008-30.976v-180.736l155.072-30.976-87.68-131.584 127.68-127.744 131.584 87.68 30.976-155.008h133.312c-22.639 18.414-42.042 39.608-58.035 63.293l-0.653 1.027h-21.888l-18.432 92.224c-1.349 5.157-2.843 12.385-4.059 19.708l-0.229 1.668-7.424 37.312-48.896 20.224-128-85.376-53.248 53.184 85.44 128.064-20.224 48.896-150.912 30.144v75.264l150.912 30.144 20.224 48.896-85.376 128 53.184 53.248 128-85.44 48.896 20.224 30.144 150.912h75.264l30.144-150.912 48.896-20.224 128 85.376 53.248-53.184-85.376-128.064 20.224-48.896 37.248-7.424c7.232-1.152 14.4-2.56 21.44-4.288l92.224-18.432v-21.888c24.32-16.256 46.016-36.032 64.32-58.688v133.376l-155.008 30.976 87.68 131.584-127.744 127.744-131.584-87.68-30.976 155.008zM512 576c0.014 0 0.031 0 0.048 0 54.648 0 101.298-34.247 119.658-82.449l0.294-0.879c-22.028-8.634-41.005-18.809-58.562-30.898l0.962 0.626c-6.798 28.601-32.126 49.547-62.347 49.547-35.346 0-64-28.654-64-64 0-30.22 20.946-55.548 49.111-62.259l0.435-0.088c-11.463-16.595-21.638-35.572-29.597-55.668l-0.675-1.932c-49.15 18.619-83.458 65.303-83.458 120 0 70.692 57.308 128 128 128 0.046 0 0.091 0 0.137 0h-0.007zM593.92 397.12c38.871 33.335 89.779 53.626 145.426 53.626 123.712 0 224-100.288 224-224 0-71.109-33.134-134.479-84.806-175.513l-0.461-0.353c-37.763-30.002-86.131-48.134-138.734-48.134-123.712 0-224 100.288-224 224 0 68.065 30.358 129.039 78.272 170.121l0.302 0.253zM576 256v-64h320v64h-320z" />
<glyph unicode="&#xe97e;" glyph-name="expand-all" d="M576 384h-320v-64h320v64zM448 192v320h-64v-320h64zM320 768l64 64h448l64-64v-448l-64-64h-128v-128l-64-64h-448l-64 64v448l64 64h128v128zM384 640h256l64-64v-256h128v448h-448v-128zM640 576h-448v-448h448v448z" />
<glyph unicode="&#xe97f;" glyph-name="export" d="M837.504 512l-152.96 153.472 44.928 45.056 230.528-230.528-230.528-230.528-44.992 45.056 152.512 152.448v1.024h-644.992v64h645.504zM64 704h64v-448h-64v448z" />
<glyph unicode="&#xe980;" glyph-name="extensions" d="M576 896l64 64h320l64-64v-320l-64-64h-320l-64 64v320zM640 896v-320h320v320h-320zM0 320v384l64 64h320l64-64v-320h320l64-64v-320l-64-64h-704l-64 64v320zM384 384v320h-320v-320h320zM384 320h-320v-320h320v320zM448 0h320v320h-320v-320z" />
<glyph unicode="&#xe981;" glyph-name="eye" d="M511.996 575.798c94.255 0 170.667-76.411 170.667-170.666 0-94.259-76.412-170.668-170.667-170.668-94.258 0-170.668 76.41-170.668 170.668 0 94.255 76.41 170.666 170.668 170.666zM511.996 511.798c-58.91 0-106.668-47.757-106.668-106.666s47.758-106.668 106.668-106.668c58.91 0 106.667 47.758 106.667 106.668s-47.757 106.666-106.667 106.666zM511.996 725.328c196.843 0 366.769-134.4 413.912-322.748 4.294-17.144-6.125-34.522-23.27-38.814-17.146-4.288-34.522 6.127-38.81 23.275-40.064 160.028-184.525 274.287-351.832 274.287-167.385 0-311.891-114.358-351.879-274.483-4.282-17.143-21.654-27.571-38.8-23.292-17.146 4.284-27.575 21.653-23.293 38.801 47.065 188.458 217.042 322.973 413.972 322.973z" />
<glyph unicode="&#xe982;" glyph-name="eye-closed" d="M94.706 865.299c-11.361-11.361-12.393-29.138-3.098-41.665l3.098-3.589 172.142-172.142c-82.005-57.577-143.295-143.573-168.762-245.312-4.291-17.143 6.128-34.522 23.272-38.813 17.144-4.288 34.521 6.127 38.813 23.274 22.591 90.244 78.385 165.937 152.754 214.788l77.211-77.217c-30.187-30.784-48.801-72.96-48.801-119.48 0-94.256 76.41-170.666 170.666-170.666 46.524 0 88.696 18.618 119.484 48.8l252.554-252.563c12.499-12.499 32.755-12.499 45.254 0 11.36 11.36 12.397 29.133 3.098 41.664l-3.098 3.59-789.332 789.331c-12.497 12.497-32.758 12.497-45.255 0zM435.375 479.344l150.831-150.831c-19.2-18.593-45.368-30.036-74.206-30.036-58.909 0-106.666 47.756-106.666 106.666 0 28.838 11.444 55.006 30.042 74.202zM512 725.339c-42.679 0-84.092-6.318-123.26-18.134l52.78-52.744c22.861 4.517 46.434 6.877 70.481 6.877 167.386 0 311.891-114.358 351.878-274.483 4.282-17.144 21.651-27.571 38.797-23.292 17.152 4.284 27.578 21.654 23.296 38.801-47.066 188.458-217.043 322.974-413.971 322.974zM520.307 575.61l162.189-162.164c-4.346 87.761-74.615 157.967-162.189 162.164z" />
<glyph unicode="&#xe983;" glyph-name="feedback" d="M483.136 315.008c29.44-11.648 56.32-27.136 80.512-46.4 24.192-19.2 44.864-41.6 62.080-66.944 33.742-48.583 54.003-108.747 54.272-173.629v-28.035h-56v28.032c0.001 0.268 0.002 0.585 0.002 0.903 0 69.279-28.269 131.956-73.901 177.125l-0.021 0.021c-22.476 22.166-49.017 40.279-78.393 53.11l-1.671 0.65c-28.909 12.717-62.609 20.131-98.037 20.16h-0.011c-0.268 0.001-0.585 0.002-0.903 0.002-69.279 0-131.956-28.269-177.125-73.901l-0.021-0.021c-22.158-22.48-40.27-49.020-53.108-78.392l-0.652-1.672c-13.184-30.336-19.84-63.040-20.16-97.984v-28.032h-56v28.032c-0.001 0.237-0.001 0.517-0.001 0.797 0 64.687 20.315 124.629 54.914 173.795l-0.641-0.96c35.311 50.485 83.816 89.536 140.546 112.524l2.11 0.756c-13.42 9.293-25.076 19.689-35.338 31.341l-0.182 0.211c-9.954 11.257-18.811 23.89-26.159 37.461l-0.529 1.067c-6.826 12.558-12.531 27.115-16.365 42.414l-0.275 1.298c-3.596 14.112-5.797 30.379-6.078 47.112l-0.002 0.184c0 27.072 5.12 52.48 15.36 76.096 20.447 46.954 57.125 83.654 102.789 103.631l1.275 0.497c22.679 9.914 49.107 15.683 76.883 15.683 27.37 0 53.432-5.602 77.102-15.722l-1.28 0.487c46.965-20.461 83.667-57.163 103.631-102.853l0.497-1.275c9.896-22.661 15.654-49.065 15.654-76.814 0-16.534-2.044-32.591-5.894-47.931l0.288 1.354c-3.84-15.168-9.472-29.76-17.024-43.776-8.063-14.768-16.91-27.514-26.941-39.214l0.253 0.302c-10.24-11.968-22.080-22.4-35.456-31.488zM371.968 336c19.264 0 37.376 3.648 54.272 10.88 33.613 14.535 59.86 40.803 74.018 73.522l0.35 0.91c7.616 17.216 11.392 35.456 11.392 54.656 0.001 0.182 0.001 0.397 0.001 0.613 0 38.317-15.75 72.956-41.129 97.795l-0.024 0.024c-12.6 12.295-27.361 22.447-43.649 29.819l-0.959 0.389c-15.717 7.198-34.095 11.395-53.453 11.395-0.288 0-0.576-0.001-0.864-0.003h0.044c-19.2 0-37.312-3.648-54.208-10.88-33.801-14.671-60.209-41.079-74.525-73.964l-0.355-0.916c-7.232-16.896-10.88-35.008-10.88-54.272 0-19.2 3.648-37.312 10.88-54.208 7.36-16.896 17.28-31.808 29.824-44.608 25.159-25.416 60.054-41.154 98.624-41.154 0.248 0 0.495 0.001 0.742 0.002h-0.038zM960 896v-448h-112l-168-168v168h-56v56h112v-88.832l88.832 88.832h79.168v336h-560v-100.608c-11.973-1.503-21.518-3.054-30.96-4.89l2.928 0.474c-10.734-2.062-20.112-4.785-29.114-8.261l1.146 0.389v168.896h672z" />
<glyph unicode="&#xe984;" glyph-name="file" d="M877.44 685.44l-192 192-45.44 18.56h-384l-64-64v-768l64-64h576l64 64v576l-18.56 45.44zM832 64h-576v768h320v-256h256v-512zM640 640v192l192-192h-192z" />
<glyph unicode="&#xe985;" glyph-name="file-binary" d="M676.48 887.040l209.92-211.2 9.6-23.040v-620.8l-32-32h-704l-32 32v832l32 32h494.080l22.4-8.96zM192 832v-768h640v576l-192 192h-448zM285.44 572.672c0-82.368 29.312-123.52 87.936-123.52 29.248 0 51.648 11.072 67.2 33.28 15.744 22.272 23.552 54.208 23.552 95.936 0 83.776-28.608 125.632-85.888 125.632-30.144 0-53.184-11.2-69.12-33.664-15.808-22.4-23.68-54.912-23.68-97.664zM340.608 574.080c0 59.008 11.712 88.512 35.2 88.512 22.016 0 33.024-28.672 33.024-85.952s-11.264-85.952-33.728-85.952c-23.040 0-34.56 27.776-34.56 83.392zM544.576 453.376h155.84v43.008h-50.688v207.616l-106.56-21.504v-43.968l52.48 11.328v-153.472h-51.072v-43.008zM459.008 133.376h-155.904v43.008h51.072v153.472l-52.48-11.328v43.968l106.624 21.504v-207.616h50.688v-42.944zM525.248 256.96c0-82.368 29.312-123.52 88-123.52 29.248 0 51.648 11.072 67.2 33.28 15.68 22.272 23.552 54.208 23.552 95.936 0 83.776-28.672 125.632-85.952 125.632-30.080 0-53.12-11.2-69.12-33.664-15.744-22.4-23.68-54.912-23.68-97.664zM580.416 258.368c0 59.008 11.776 88.512 35.2 88.512 22.016 0 33.024-28.672 33.024-85.952s-11.2-85.952-33.664-85.952c-23.040 0-34.56 27.776-34.56 83.392z" />
<glyph unicode="&#xe986;" glyph-name="file-code" d="M676.48 887.040l209.92-211.2 9.6-23.040v-620.8l-32-32h-704l-32 32v832l32 32h494.080l22.4-8.96zM640 640h192l-192 192v-192zM192 832v-768h640v512h-224l-32 32v224h-384zM323.968 349.888l116.288 116.992-45.376 45.12-138.88-139.456v-45.248l138.944-139.136 45.248 45.248-116.224 116.48zM563.2 466.304l44.8 45.376 140.096-139.2v-45.376l-140.096-139.072-45.12 45.376 117.184 116.48-116.864 116.416z" />
<glyph unicode="&#xe987;" glyph-name="file-media" d="M128 832h384v-224l32-32h224v-64h64v140.8l-9.6 23.040-209.92 211.2-22.4 8.96h-494.080l-32-32v-832l32-32h224v64h-192v768zM576 832l192-192h-192v192zM928 448h-512l-32-32v-384l32-32h512l32 32v384l-32 32zM896 384v-256l-104.32 102.4h-45.44l-74.24-74.88-136.32 136.32h-45.44l-42.24-42.24v134.4h448zM716.8 110.72l51.84 51.84 98.56-98.56h-103.68l-46.72 46.72zM448 64v95.36l64 64 161.28-159.36h-225.28zM800 288c17.673 0 32 14.327 32 32s-14.327 32-32 32v0c-17.673 0-32-14.327-32-32s14.327-32 32-32v0z" />
<glyph unicode="&#xe988;" glyph-name="file-pdf" d="M886.4 675.84l-209.92 211.2-22.4 8.96h-494.080l-32-32v-352h64v320h384v-224l32-32h224v-64h64v140.8l-9.6 23.040zM640 640v192l192-192h-192zM160 448l-32-32v-384l32-32h704l32 32v384l-32 32h-704zM832 128v-64h-640v320h640v-256zM320 192h-20.48v-64h-43.52v192h67.84c48 0 72.32-23.040 72.32-64 0.004-0.255 0.006-0.555 0.006-0.856 0-17.994-7.9-34.142-20.42-45.167l-0.066-0.057c-14.281-11.215-32.515-17.986-52.33-17.986-1.178 0-2.351 0.024-3.517 0.071l0.167-0.005zM316.16 284.8h-16.64v-59.52h16.64c23.040 0 34.56 10.24 34.56 30.080s-11.52 29.44-34.56 29.44zM576 154.88c17.445 17.19 28.253 41.075 28.253 67.483 0 1.476-0.034 2.944-0.101 4.404l0.008-0.207c0 64-33.92 93.44-102.4 93.44h-67.84v-192h67.84c1.479-0.076 3.211-0.12 4.954-0.12 26.756 0 51.116 10.262 69.358 27.065l-0.072-0.065zM476.8 163.2v121.6h21.12c1.141 0.077 2.473 0.121 3.815 0.121 15.853 0 30.275-6.132 41.021-16.154l-0.036 0.033c9.944-10.428 16.063-24.581 16.063-40.163 0-0.956-0.023-1.906-0.069-2.851l0.005 0.133c0.066-1.085 0.103-2.354 0.103-3.631 0-16.318-6.107-31.209-16.16-42.514l0.057 0.065c-10.784-10.333-25.446-16.695-41.593-16.695-0.903 0-1.801 0.020-2.694 0.059l0.127-0.004h-21.76zM761.6 202.24h-62.080v-74.24h-43.52v192h111.36v-35.2h-67.84v-47.36h62.080v-35.2z" />
<glyph unicode="&#xe989;" glyph-name="files" d="M746.667 960h-384l-64-64v-192h-192l-64-64v-642.987l64-61.013h514.987l61.013 61.013v194.987h200.533l55.467 61.013v514.987l-192 192zM746.667 869.547l101.547-101.547h-101.547v101.547zM618.667 0h-512v640h192v-386.987l64-61.013h256v-192zM874.667 256h-512v640h320v-192h192v-448z" />
<glyph unicode="&#xe98a;" glyph-name="file-submodule" d="M128 256h64v256.64h-64v-256.64zM192 576.64v31.36l32 32h283.52l27.52-16 27.52-48h365.44l32-32v-512l-32-32h-704l-32 32v160h-96l-32 32v576l32 32h282.88l28.16-16 27.52-48h365.44l32-32v-160l-64 1.92v126.080h-352l-27.52 16-27.52 48h-232.96v-191.36h64zM516.48 528l-27.52 48h-232.96v-192h201.6l26.24 47.36 28.16 16.64h384v64h-352l-27.52 16zM476.8 320h-220.8v-256h640v320h-364.8l-26.24-47.36-28.16-16.64z" />
<glyph unicode="&#xe98b;" glyph-name="file-symlink-directory" d="M493.44 768h434.56l32.64-32v-640l-32-32h-832l-32 32v704l32 32h320l22.4-9.6 54.4-54.4zM895.36 128v96.64l0.64 256v96h-403.2l-55.040-55.040-22.4-9.6h-287.36v-384h767.36zM479.36 640h416l0.64 63.36h-416l-23.040 9.6-54.4 54.4h-274.56v-192h273.92l55.040 55.040 22.4 9.6zM625.92 379.52l-87.040 87.68 47.36 44.16 142.080-142.080v-45.44l-146.56-141.44-44.8 46.080 89.6 86.4h-87.68c-34.044-1.579-64.388-16.227-86.363-39.002l-0.037-0.038c-20.966-20.867-33.941-49.747-33.941-81.658 0-0.767 0.008-1.533 0.022-2.297l-0.002 0.114h-64c-0.016 0.883-0.025 1.925-0.025 2.969 0 48.842 19.823 93.053 51.862 125.029l0.003 0.003c32.524 34.231 77.404 56.453 127.463 59.494l0.537 0.026h91.52z" />
<glyph unicode="&#xe98c;" glyph-name="file-symlink-file" d="M676.48 887.040l209.92-211.2 9.6-23.040v-620.8l-32-32h-224v64h192v512h-224l-32 32v224h-384v-256h-64v288l32 32h494.080l22.4-8.96zM640 640h192l-192 192v-192zM544 512h-448l-32-32v-448l32-32h448l32 32v448l-32 32zM512 64h-384v384h384v-384zM448 352v-192h-64v114.752l-169.344-169.408-45.312 45.312 169.408 169.344h-112.832v64h190.080l32-32z" />
<glyph unicode="&#xe98d;" glyph-name="file-zip" d="M160 896h704l32-32v-320l-9.6-22.4-54.4-55.040v-434.56l-32-32h-640l-32 32v832l32 32zM384 832h-64v-128h64v128zM384 64h256v404.48l-54.4 54.4-9.6 23.040v286.080h-128v-160l-32-32h-32v-64h-64v64h-32l-32 32v160h-64v-768h128v64h64v-64zM384 192v-64h64v64h-64zM384 256v-64h-64v64h64zM384 320h64v-64h-64v64zM384 384v-64h-64v64h64zM384 448h64v-64h-64v64zM384 512v-64h-64v64h64zM384 512h64v64h-64v-64zM777.6 502.4l54.4 55.040v274.56h-192v-273.28l54.4-54.4 9.6-22.4v-417.92h64v416l9.6 22.4z" />
<glyph unicode="&#xe98e;" glyph-name="filter" d="M960 832v-106.88l-320-304.576v-356.544h-256v356.544l-320 304.64v106.816h896zM448 448v-320h128v320l320 304.64v15.36h-768v-15.36l320-304.64z" />
<glyph unicode="&#xe98f;" glyph-name="filter-filled" d="M960 832v-106.88l-320-304.576v-356.544h-256v356.544l-320 304.64v106.816h896z" />
<glyph unicode="&#xe990;" glyph-name="flame" d="M584.32 0l-33.92 49.28c15.18 19.702 24.329 44.731 24.329 71.898 0 36.308-16.343 68.798-42.073 90.517l-0.176 0.145c-38.251 32.123-65.485 76.257-75.908 126.545l-0.252 1.455c-99.84-142.72-48-221.44 0-291.2l-35.2-48.64c-131.506 25.44-229.46 139.646-229.46 276.731 0 4.864 0.123 9.7 0.367 14.503l-0.027-0.674s-13.44 138.24 145.92 273.28c0 0 180.48 167.040 117.76 290.56l45.44 41.6c108.867-77.041 179.075-202.46 179.075-344.278 0-35.457-4.389-69.889-12.653-102.783l0.617 2.9c14.817 14.468 26.893 31.667 35.424 50.795l0.416 1.045 55.68 4.48c4.48-7.68 117.76-187.52 56.96-339.2-44.011-90.43-129.339-154.771-230.741-168.781l-1.579-0.179zM456.32 444.8l55.68-24.96c-0.627-5.824-0.985-12.581-0.985-19.421 0-54.801 22.959-104.239 59.782-139.221l0.083-0.078c42.312-31.083 69.469-80.651 69.469-136.561 0-15.155-1.995-29.845-5.738-43.82l0.269 1.181c53.903 19.264 96.579 58.607 119.787 108.795l0.533 1.285c7.274 25.097 11.458 53.926 11.458 83.732 0 54.456-13.966 105.651-38.511 150.197l0.813-1.61c-21.206-33.985-58.394-56.263-100.785-56.263-5.989 0-11.874 0.445-17.624 1.303l0.649-0.080-22.4 43.52c19.814 41.832 31.383 90.884 31.383 142.638 0 88.14-33.554 168.443-88.586 228.832l0.243-0.27c-8.96-135.68-147.84-261.12-152.32-268.16-132.48-112.64-123.52-216.96-123.52-221.44-0.282-4.19-0.443-9.083-0.443-14.014 0-78.129 40.346-146.836 101.339-186.421l0.863-0.525c-37.76 89.6-37.76 197.12 100.48 351.36h-1.92z" />
<glyph unicode="&#xe991;" glyph-name="fold" d="M764.928 807.616l-254.464-254.464-254.464 254.464-39.68-39.616 274.304-274.24h39.616l274.24 274.24-39.552 39.616zM249.856 64l260.608 260.608 260.544-260.608 39.68 39.616-280.512 280.384h-39.616l-280.384-280.384 39.616-39.616z" />
<glyph unicode="&#xe992;" glyph-name="fold-down" d="M909.248 850.752l-45.248 45.248-384-384-384 384-45.248-45.248 406.592-406.656h45.312l406.592 406.656zM909.248 466.752l-45.248 45.248-384-384-384 384-45.248-45.248 406.592-406.656h45.312l406.592 406.656z" />
<glyph unicode="&#xe993;" glyph-name="folder" d="M928 768h-434.56l-54.4 54.4-22.4 9.6h-320l-32-32v-704l32-32h832l32 32v640l-32.64 32zM895.36 224.64v-96.64h-768v384h287.36l22.4 9.6 55.040 55.040h403.84v-96l-0.64-256zM895.36 640h-416l-22.4-9.6-55.040-55.040h-273.92v192h274.56l54.4-54.4 23.040-9.6h416l-0.64-63.36z" />
<glyph unicode="&#xe994;" glyph-name="folder-active" d="M493.44 768h434.56l32.64-32v-288.448c-18.713 14.266-39.965 26.918-62.608 37.014l-2.032 0.81v91.264h-403.84l-55.040-55.040-22.4-9.6h-287.36v-384h327.040c4.48-22.272 11.328-43.648 20.224-64h-377.984l-32 32v704l32 32h320l22.4-9.6 54.4-54.4zM479.36 640h416l0.64 63.36h-416l-23.040 9.6-54.4 54.4h-274.56v-192h273.92l55.040 55.040 22.4 9.6zM625.792 404.864c40.186 27.48 89.84 43.882 143.324 43.882 141.385 0 256-114.615 256-256 0-88.844-45.258-167.118-113.977-213.024l-0.931-0.585c-39.708-26.562-88.551-42.39-141.092-42.39-141.385 0-256 114.615-256 256 0 87.9 44.301 165.454 111.795 211.55l0.881 0.568zM762.112 85.504l152.768 203.648-51.2 38.4-132.928-177.216-83.264 66.624-40-49.92 109.056-87.296 45.632 5.76z" />
<glyph unicode="&#xe995;" glyph-name="folder-library" d="M493.437 768h434.563l32.64-32v-224h-64.64v64.641h-403.844l-55.039-55.039-22.399-9.601h-287.359v-384h320.641v-64h-351.359l-32 32v704l32 32h320l22.399-9.601 54.398-54.399zM479.359 640h416.001l0.64 63.359h-416l-23.039 9.601-54.398 54.399h-274.563v-192h273.922l55.039 55.039 22.399 9.601zM512 448h64v-384h-64v384zM640 448h64v-384h-64v384zM768.262 425.476l60.14 21.889 131.336-360.842-60.14-21.889-131.336 360.842z" />
<glyph unicode="&#xe996;" glyph-name="folder-opened" d="M96 64h704l30.72 23.68 168.32 448-30.72 40.32h-72.32v160l-32 32h-370.56l-55.040 54.4-22.4 9.6h-320l-32-32v-704l32-32zM128 768h274.56l55.040-54.4 22.4-9.6h352v-128h-288l-22.4-9.6-55.040-54.4h-242.56l-30.080-21.76-64-197.12-1.92 474.88zM776.32 128h-636.16l106.88 320h232.96l22.4 9.6 55.040 54.4h370.56l-151.68-384z" />
<glyph unicode="&#xe997;" glyph-name="fold-up" d="M64 486.4l44.8-44.8 384 384 384-384 44.8 44.8-403.2 409.6h-44.8l-409.6-409.6zM64 102.4l44.8-44.8 384 384 384-384 44.8 44.8-403.2 409.6h-44.8l-409.6-409.6z" />
<glyph unicode="&#xe998;" glyph-name="gear" d="M582.4 678.4l-32 153.6h-76.8l-32-153.6-44.8-19.2-128 83.2-57.6-51.2 83.2-128-12.8-44.8-153.6-32v-76.8l153.6-32 19.2-51.2-83.2-128 51.2-51.2 128 83.2 51.2-19.2 25.6-147.2h76.8l32 153.6 51.2 19.2 128-83.2 51.2 51.2-83.2 128 19.2 51.2 147.2 25.6v76.8l-153.6 32-19.2 51.2 83.2 128-51.2 51.2-128-83.2-44.8 12.8zM601.6 896l32-153.6 134.4 83.2 128-128-89.6-134.4 153.6-25.6v-179.2l-153.6-32 89.6-134.4-128-128-134.4 89.6-32-153.6h-179.2l-32 153.6-134.4-83.2-128 128 89.6 134.4-153.6 25.6v179.2l153.6 32-83.2 134.4 128 128 134.4-89.6 25.6 153.6h179.2zM640 448c0-70.4-57.6-128-128-128s-128 57.6-128 128 57.6 128 128 128 128-57.6 128-128zM512 384c38.4 0 64 25.6 64 64s-25.6 64-64 64-64-25.6-64-64 25.6-64 64-64z" />
<glyph unicode="&#xe999;" glyph-name="gift" d="M864 704h-102.4c6.4 25.6 6.4 51.2 6.4 76.8-6.4 19.2-12.8 38.4-25.6 57.6s-25.6 32-44.8 38.4c-19.2 6.4-38.4 19.2-57.6 19.2s-38.4 0-57.6-12.8c-44.8-12.8-76.8-44.8-102.4-83.2-25.6 38.4-57.6 70.4-102.4 83.2-19.2 6.4-38.4 12.8-57.6 12.8s-38.4-6.4-57.6-19.2c-19.2-6.4-32-19.2-44.8-38.4-12.8-12.8-19.2-38.4-25.6-57.6 0-25.6 0-51.2 6.4-76.8h-102.4l-32-32v-576l32-32h768l32 32v576l-32 32zM448 128h-320v512h320v-512zM448 704h-192v12.8c-6.4 19.2-6.4 32-6.4 51.2 6.4 12.8 6.4 25.6 19.2 32 6.4 12.8 19.2 19.2 32 25.6 6.4 6.4 19.2 6.4 32 6.4s25.6 0 38.4-6.4c19.2-6.4 38.4-19.2 51.2-38.4s25.6-38.4 25.6-64v-19.2zM512 723.2c0 25.6 12.8 44.8 25.6 64s32 32 51.2 38.4c12.8 6.4 25.6 6.4 38.4 6.4s25.6 0 38.4-6.4c12.8-6.4 19.2-12.8 32-25.6 6.4-6.4 6.4-19.2 12.8-32 0-19.2 0-32-6.4-51.2 0-6.4 0-6.4-6.4-12.8h-185.6v19.2zM832 128h-320v512h320v-512z" />
</font>
</defs>
</svg>
